Самолет президента / Air Force One (1997) BDRip-HEVC 1080p от HEVC-CLUB | D

Ответить на тему
Статистика раздачи [Обновить пиров]
Размер:  11,92 GB   |    Зарегистрирован:  7 дней   |    .torrent скачан:  0 раз
Сидов:  1  [  0 KB/s  ]   Личеров:  3  [  0 KB/s  ]   Подробная статистика пиров
 
   
 
 
 
Автор Сообщение

4udaki ®

Оффлайн



Пол: Мужской

Стаж: 5 лет 2 месяца

Наличие запрета:

Сообщений: 5450

Откуда: korsars.info

Отдача: 2 Mb/s

Загрузка: 20 Mb/s

Нажми

Создавать темы 14-Янв-2020 01:00

[Цитировать]

Информация о фильме
Название: Самолет президента
Оригинальное название: Air Force One
Год выхода: 1997
Жанр: боевик, триллер, драма
Режиссер: Вольфганг Петерсен
В ролях: Харрисон Форд, Гари Олдман, Гленн Клоуз, Венди Крюсон, Лизель Мэтьюз, Пол Гилфойл, Ксандер Беркли, Уильям Х. Мэйси, Дин Стокуэлл, Том Эверетт
О фильме:
Самолет президента — самый охраняемый объект ВВС США. Президент возвращается с переговоров в Москве вместе с семьей и администрацией. Но едва самолет поднимается в воздух, его захватывает группа террористов, которыми руководит непримиримый коммунист Коршунов. Он угрожает убить заложников, если их лидер, генерал Радек, заключенный в тюрьму, не будет освобожден. Президенту приходится бороться за жизнь близких ему людей и за будущее человечества.

Страна: США, Германия
Студия: Buena Vista, Beacon Pictures, Radiant Productions
Продолжительность: 02:04:46
Перевод: Дублированный (Лицензия)
Файл
Исходник: Air Force One (1997) UHD Blu-ray 2160p
Качество: BDRip-HEVC 1080p
Видео: HEVC/x.265, 1920x800, ~12.0 Mb/s
Аудио 1: AC3, 6 ch, 640 Kbps - Русский, Дублированный (Лицензия)
Аудио 2: AC3, 6 ch, 448 Kbps - Украинский, MVO
Аудио 3: AC3, 6 ch, 640Kbps - Английский
Субтитры: Отсутствуют

Mediainfo

General
Unique ID : 257243439746125177732283882474188548500 (0xC18748CBD83FB0C4DD73F4E22B87A994)
Complete name : H:[HEVC]Air Force One (1997) BDRip-HEVC 1080p 10bit.mkv
Format : Matroska
Format version : Version 4
File size : 11.9 GiB
Duration : 2 h 4 min
Overall bit rate : 13.7 Mb/s
Encoded date : UTC 2019-11-13 17:38:43
Writing application : mkvmerge v25.0.0 ('Prog Noir') 64-bit
Writing library : libebml v1.3.6 + libmatroska v1.4.9 / Lavf58.20.100
Attachments : poster
ENCODING_INFO : JPEG > COPY Быстрое
Language : und
Video
ID : 1
Format : HEVC
Format/Info : High Efficiency Video Coding
Format profile : Main [email protected]@High
Codec ID : V_MPEGH/ISO/HEVC
Duration : 2 h 4 min
Bit rate : 12.0 Mb/s
Width : 1 920 pixels
Height : 800 pixels
Display aspect ratio : 2.40:1
Frame rate mode : Constant
Frame rate : 23.976 (24000/1001) FPS
Color space : YUV
Chroma subsampling : 4:2:0
Bit depth : 10 bits
Bits/(Pixel*Frame) : 0.325
Stream size : 10.4 GiB (87%)
Writing library : x265 3.1+11-de920e0a3183:[Windows][clang 8.0.0][64 bit] 10bit
Encoding settings : cpuid=1111039 / frame-threads=13 / numa-pools=12 / wpp / no-pmode / no-pme / no-psnr / no-ssim / log-level=3 / input-csp=1 / input-res=1920x800 / interlace=0 / total-frames=0 / level-idc=51 / high-tier=1 / uhd-bd=0 / ref=5 / allow-non-conformance / no-repeat-headers / annexb / no-aud / no-hrd / info / hash=0 / no-temporal-layers / open-gop / min-keyint=24 / keyint=240 / gop-lookahead=0 / bframes=8 / b-adapt=2 / b-pyramid / bframe-bias=0 / rc-lookahead=40 / lookahead-slices=5 / scenecut=60 / radl=0 / no-splice / no-intra-refresh / ctu=64 / min-cu-size=8 / rect / amp / max-tu-size=32 / tu-inter-depth=4 / tu-intra-depth=4 / limit-tu=0 / rdoq-level=2 / dynamic-rd=0.00 / no-ssim-rd / signhide / no-tskip / nr-intra=0 / nr-inter=0 / no-constrained-intra / no-strong-intra-smoothing / max-merge=3 / limit-refs=1 / no-limit-modes / me=3 / subme=7 / merange=57 / temporal-mvp / no-hme / weightp / weightb / no-analyze-src-pics / deblock=-3:-3 / no-sao / no-sao-non-deblock / rd=6 / early-skip / rskip / no-fast-intra / no-tskip-fast / no-cu-lossless / b-intra / no-splitrd-skip / rdpenalty=0 / psy-rd=2.00 / psy-rdoq=1.00 / no-rd-refine / no-lossless / cbqpoffs=0 / crqpoffs=0 / rc=crf / crf=17.0 / qcomp=0.60 / qpstep=4 / stats-write=0 / stats-read=0 / vbv-maxrate=160000 / vbv-bufsize=160000 / vbv-init=0.9 / crf-max=30.0 / crf-min=0.0 / ipratio=1.40 / pbratio=1.30 / aq-mode=1 / aq-strength=1.00 / cutree / zone-count=0 / no-strict-cbr / qg-size=32 / no-rc-grain / qpmax=69 / qpmin=0 / no-const-vbv / sar=1 / overscan=0 / videoformat=5 / range=0 / colorprim=1 / transfer=1 / colormatrix=1 / chromaloc=0 / display-window=0cll=0,0 / min-luma=0 / max-luma=1023 / log2-max-poc-lsb=8 / vui-timing-info / vui-hrd-info / slices=1 / no-opt-qp-pps / no-opt-ref-list-length-pps / no-multi-pass-opt-rps / scenecut-bias=0.05 / no-opt-cu-delta-qp / no-aq-motion / no-hdr / no-hdr-opt / no-dhdr10-opt / no-idr-recovery-sei / analysis-reuse-level=5 / scale-factor=0 / refine-intra=0 / refine-inter=0 / refine-mv=0 / refine-ctu-distortion=0 / no-limit-sao / ctu-info=0 / no-lowpass-dct / refine-analysis-type=0 / copy-pic=1 / max-ausize-factor=1.0 / no-dynamic-refine / no-single-sei / no-hevc-aq / no-svt / no-field / qp-adaptation-range=1.00
Default : Yes
Forced : No
Color range : Limited
Color primaries : BT.709
Transfer characteristics : BT.709
Matrix coefficients : BT.709
ENCODING_INFO : HEVC > X265 CRF 17.0 Пользовательский 2
Audio #1
ID : 2
Format : AC-3
Format/Info : Audio Coding 3
Commercial name : Dolby Digital
Codec ID : A_AC3
Duration : 2 h 4 min
Bit rate mode : Constant
Bit rate : 640 kb/s
Channel(s) : 6 channels
Channel layout : L R C LFE Ls Rs
Sampling rate : 48.0 kHz
Frame rate : 31.250 FPS (1536 SPF)
Compression mode : Lossy
Stream size : 570 MiB (5%)
Language : Russian
Service kind : Complete Main
Default : Yes
Forced : No
Audio #2
ID : 3
Format : AC-3
Format/Info : Audio Coding 3
Commercial name : Dolby Digital
Codec ID : A_AC3
Duration : 2 h 4 min
Bit rate mode : Constant
Bit rate : 448 kb/s
Channel(s) : 6 channels
Channel layout : L R C LFE Ls Rs
Sampling rate : 48.0 kHz
Frame rate : 31.250 FPS (1536 SPF)
Compression mode : Lossy
Stream size : 400 MiB (3%)
Language : Ukrainian
Service kind : Complete Main
Default : No
Forced : No
Audio #3
ID : 4
Format : AC-3
Format/Info : Audio Coding 3
Commercial name : Dolby Digital
Codec ID : A_AC3
Duration : 2 h 4 min
Bit rate mode : Constant
Bit rate : 640 kb/s
Channel(s) : 6 channels
Channel layout : L R C LFE Ls Rs
Sampling rate : 48.0 kHz
Frame rate : 31.250 FPS (1536 SPF)
Compression mode : Lossy
Stream size : 570 MiB (5%)
Language : English
Service kind : Complete Main
Default : No
Forced : No
Menu
00:00:00.000 : :Глава 1
00:08:28.633 : :Глава 2
00:15:37.354 : :Глава 3
00:21:52.896 : :Глава 4
00:29:02.033 : :Глава 5
00:37:24.202 : :Глава 6
00:43:44.833 : :Глава 7
00:52:12.424 : :Глава 8
00:52:12.799 : :Глава 9
01:03:00.071 : :Глава 10
01:14:41.564 : :Глава 11
01:26:47.457 : :Глава 12
01:40:47.672 : :Глава 13
01:48:15.412 : :Глава 14
01:58:19.933 : :Глава 15

Скриншоты

Релиз от: HANNIBAL
[korsars.info].t25628.torrent 
Торрент: Зарегистрирован [ 2020-01-14 01:00 ] · 0649528FD7A667FE8D3D5417C82AA6EDC9EDC3C6

Скачать .torrent

Скачать .torrent

31 KB

Статус: проверено
.torrent скачан: 0 раз
Размер: 11,92 GB
Правила
Похожие темы

[Профиль] [ЛС]
Показать сообщения:    
Ответить на тему

Текущее время: 21-Янв 19:38

Часовой пояс: UTC + 4



Вы не можете начинать темы
Вы не можете отвечать на сообщения
Вы не можете редактировать свои сообщения
Вы не можете удалять свои сообщения
Вы не можете голосовать в опросах
Вы не можете прикреплять файлы к сообщениям
Вы можете скачивать файлы
Анализ сайта korsars.info Яндекс.Метрика