Расправа / Reprisal [S01] (2019) WEBRip 720p | TVShows

Ответить на тему
Статистика раздачи [Обновить пиров]
Размер:  8,56 GB   |    Зарегистрирован:  7 дней   |    .torrent скачан:  0 раз
Сидов:  16  [  0 KB/s  ]   Личеров:  1  [  0 KB/s  ]   Подробная статистика пиров
 
   
 
 
Автор Сообщение

4udaki ®

Оффлайн



Пол: Мужской

Стаж: 5 лет 2 месяца

Наличие запрета:

Сообщений: 5450

Откуда: korsars.info

Отдача: 2 Mb/s

Загрузка: 20 Mb/s

Нажми

Создавать темы 14-Янв-2020 09:00

[Цитировать]

Расправа / Reprisal
Страна: США
Производство: The Littlefield Co., A+E Studios
Год выпуска: 2019
Жанр: триллер, драма, криминал
Продолжительность: 10х ~00:57:00
Режиссеры: Джонатан ван Тюллекен, Чери Ноулан, Эва Сёрхёуг
В ролях: Эбигейл Спенсер, Родриго Санторо, Мена Массуд, Мэдисон Девенпорт, Риз Уэйкфилд, Бетани Энн Линд, Давид Дастмалчян, Крэйг Тейт
Описание: Америка 1950-е, продажные копы, неуправляемые бандиты и одинокая женщина, которая взяла правосудие в свои руки и решительно настроена добиться справедливости. А для этого придётся пойти по трупам...

Перевод: Профессиональный (многоголосый, закадровый) | TVShows
Субтитры: английские (full)-Качество: WEBRip 720p
Формат: МКV
Видео кодек: AVC
Аудио кодек: АС3 | E-AC3
Видео: 1280x536 (16:9), 23.976 fps, MPEG-4 AVC ~1470-2095 kbps avg
Аудио №1: 48.0 kHz, AC3 Dolby Digital, 3/2 (L,C,R,l,r) + LFE ch, ~384 kbps | RUS / MVO
Аудио №2: 48.0 kHz, Enhanced Audio Coding 3, 3/2 (L,C,R,l,r) + LFE ch, ~256 kbps | ENG
Формат субтитров: UTF-8 Plain Text
Дата премьеры (мир): 6 декабря 2019

Media Info

General
Уникальный идентификатор : 93625103055702333354472364500027676688 (0x466F89F8C4543301D1172201B90F9810)
Полное имя : Reprisal.S01E04.720p.TVShows.mkv
Формат : Matroska
Версия формата : Version 4
Размер файла : 1,03 Гбайт
Продолжительность : 53 м. 54 с.
Общий поток : 2737 Кбит/сек
Дата кодирования : UTC 2019-12-20 06:57:14
Программа кодирования : mkvmerge v33.1.0 ('Primrose') 64-bit
Библиотека кодирования : libebml v1.3.7 + libmatroska v1.5.0
Видео
Идентификатор : 1
Формат : AVC
Формат/Информация : Advanced Video Codec
Профиль формата : [email protected]
Настройки формата : CABAC / 5 Ref Frames
Параметр CABAC формата : Да
Параметр RefFrames формата : 5 кадров
Идентификатор кодека : V_MPEG4/ISO/AVC
Продолжительность : 53 м. 54 с.
Битрейт : 2095 Кбит/сек
Ширина : 1280 пикселей
Высота : 536 пикселей
Соотношение сторон : 2,40:1
Режим частоты кадров : Постоянный
Частота кадров : 23,976 (24000/1001) кадра/сек
Цветовое пространство : YUV
Субдискретизация насыщенности : 4:2:0
Битовая глубина : 8 бит
Тип развёртки : Прогрессивная
Бит/(Пиксели*Кадры) : 0.127
Размер потока : 808 Мбайт (77%)
Библиотека кодирования : x264 core 157 r2969 d4099dd
Настройки программы : cabac=1 / ref=5 / deblock=1:-3:-3 / analyse=0x3:0x113 / me=hex / subme=8 / psy=1 / psy_rd=1.00:0.15 / mixed_ref=1 / me_range=16 / chroma_me=1 / trellis=2 / 8x8dct=1 / cqm=0 / deadzone=21,11 / fast_pskip=1 / chroma_qp_offset=-3 / threads=17 / lookahead_threads=2 / sliced_threads=0 / nr=0 / decimate=1 / interlaced=0 / bluray_compat=0 / constrained_intra=0 / bframes=3 / b_pyramid=2 / b_adapt=2 / b_bias=0 / direct=3 / weightb=1 / open_gop=0 / weightp=2 / keyint=250 / keyint_min=23 / scenecut=40 / intra_refresh=0 / rc_lookahead=50 / rc=crf / mbtree=1 / crf=18.0 / qcomp=0.60 / qpmin=0 / qpmax=69 / qpstep=4 / ip_ratio=1.40 / aq=1:1.00
Язык : English
Default : Да
Forced : Нет
Цветовой диапазон : Limited
Коэффициенты матрицы : BT.709
Аудио #1
Идентификатор : 2
Формат : AC-3
Формат/Информация : Audio Coding 3
Коммерческое название : Dolby Digital
Идентификатор кодека : A_AC3
Продолжительность : 53 м. 54 с.
Вид битрейта : Постоянный
Битрейт : 384 Кбит/сек
Каналы : 6 каналов
ChannelLayout : L R C LFE Ls Rs
Частота : 48,0 КГц
Частота кадров : 31,250 кадров/сек (1536 SPF)
Битовая глубина : 16 бит
Метод сжатия : С потерями
Размер потока : 148 Мбайт (14%)
Заголовок : TVShows
Язык : Russian
Default : Да
Forced : Да
Аудио #2
Идентификатор : 3
Формат : E-AC-3
Формат/Информация : Enhanced AC-3
Коммерческое название : Dolby Digital Plus
Идентификатор кодека : A_EAC3
Продолжительность : 53 м. 54 с.
Вид битрейта : Постоянный
Битрейт : 256 Кбит/сек
Каналы : 6 каналов
ChannelLayout : L R C LFE Ls Rs
Частота : 48,0 КГц
Частота кадров : 31,250 кадров/сек (1536 SPF)
Метод сжатия : С потерями
Размер потока : 98,7 Мбайт (9%)
Заголовок : Original
Язык : English
Default : Нет
Forced : Нет
Текст
Идентификатор : 4
Формат : UTF-8
Идентификатор кодека : S_TEXT/UTF8
Идентификатор кодека/Информация : UTF-8 Plain Text
Продолжительность : 53 м. 47 с.
Битрейт : 75 бит/сек
ElementCount : 1040
Размер потока : 29,8 Кбайт (0%)
Заголовок : English
Язык : English
Default : Нет
Forced : Нет

Скриншоты

[korsars.info].t25633.torrent 
Торрент: Зарегистрирован [ 2020-01-14 09:00 ] · 1CFFF1D39A5FBC073994FEF0DD5D70CE60984E06

Скачать .torrent

Скачать .torrent

44 KB

Статус: проверено
.torrent скачан: 0 раз
Размер: 8,56 GB
Правила
Похожие темы

[Профиль] [ЛС]
Показать сообщения:    
Ответить на тему

Текущее время: 21-Янв 19:36

Часовой пояс: UTC + 4



Вы не можете начинать темы
Вы не можете отвечать на сообщения
Вы не можете редактировать свои сообщения
Вы не можете удалять свои сообщения
Вы не можете голосовать в опросах
Вы не можете прикреплять файлы к сообщениям
Вы можете скачивать файлы
Анализ сайта korsars.info Яндекс.Метрика