7 осколков во времени / 7 Splinters in Time (2018) WEB-DL 1080p от ExKinoRay | P

Ответить на тему
Статистика раздачи [Обновить пиров]
Размер:  3,93 GB   |    Зарегистрирован:  6 месяцев 26 дней   |    .torrent скачан:  1 раз
Раздают:  39  [  0 KB/s  ]   Качают:  3  [  0 KB/s  ]   Подробная статистика пиров
 
   
 
 
Автор Сообщение

4udaki ®

Оффлайн

Медали


Пол: Мужской

Стаж: 5 лет 9 месяцев

Наличие запрета:

Сообщений: 7682

Откуда: korsars.info

Отдача: 2 Mb/s

Загрузка: 20 Mb/s

Нажми


Скачать Adguard бесплатно

Создавать темы 14-Янв-2020 13:00

[Цитировать]

Название: 7 осколков во времени
Оригинальное название: 7 Splinters in Time
Год выпуска: 2018
Жанр: Фантастика, триллер, детектив
Режиссер: Габриэль Юдет-Вайншель
В ролях: Акива Шаффер, Остин Пендлтон, Линн Коэн, Эдоардо Баллерини, Эммануэль Шрики, Лорен Фокс, Эшли Н. Андерсон, Сара Соколович, Ал Сапиенза
Описание: Детектив расследует странное убийство и вскоре узнает, что жертвой оказывается он сам. Дальше он обнаруживает несколько клонов самого себя, и все они недружелюбны к нему. Найдет ли герой разгадку тем событиям и видениям, которые с ним происходят?

Выпущено: США, Intrinsic Value Films
Продолжительность: 01:15:14
Перевод: Профессиональный многоголосый
Формат: MKV
Исходник: AMZN Version
Качество: WEB-DL 1080p
Видео: MPEG-4 AVC, 1920x1040 (1.85:1), 23.976 fps, 6904 Kbps, 0.144 bit/pixel
Аудио #01: 48 kHz, AC3, 2.0, 192 Kbps | RUS |
Аудио #02: 48 kHz, E-AC3, 2.0, 224 Kbps | Оригинал | ENG |
Субтитры: Английские (полные)

ОтчетМедиаИнфо

General
Unique ID : 209629697202686937416038783970704542477 (0x9DB5360B24F04AFFB3BB5A3B74F2CB0D)
Complete name : F:7.Splinters.in.Time.2018.1080p.AMZN.WEB-DL.ExKinoRay.mkv
Format : Matroska
Format version : Version 2
File size : 3.93 GiB
Duration : 1 h 15 min
Overall bit rate : 7 468 kb/s
Movie name : 7 Splinters in Time 2018 from ExKinoRay
Encoded date : UTC 2020-01-08 19:10:13
Writing application : mkvmerge v5.6.0 ('Kenya Kane') built on May 27 2012 16:44:04
Writing library : libebml v1.2.3 + libmatroska v1.3.0
Video
ID : 1
Format : AVC
Format/Info : Advanced Video Codec
Format profile : [email protected]
Format settings, CABAC : Yes
Format settings, ReFrames : 4 frames
Codec ID : V_MPEG4/ISO/AVC
Duration : 1 h 15 min
Bit rate : 6 904 kb/s
Width : 1 920 pixels
Height : 1 040 pixels
Display aspect ratio : 1.85:1
Frame rate mode : Constant
Frame rate : 23.976 (24000/1001) FPS
Color space : YUV
Chroma subsampling : 4:2:0
Bit depth : 8 bits
Scan type : Progressive
Bits/(Pixel*Frame) : 0.144
Stream size : 3.63 GiB (92%)
Title : AMZN
Language : English
Default : Yes
Forced : No
Color range : Limited
Color primaries : BT.709
Transfer characteristics : BT.709
Matrix coefficients : BT.709
Audio #1
ID : 2
Format : AC-3
Format/Info : Audio Coding 3
Mode extension : CM (complete main)
Format settings, Endianness : Big
Codec ID : A_AC3
Duration : 1 h 15 min
Bit rate mode : Constant
Bit rate : 192 kb/s
Channel(s) : 2 channels
Channel positions : Front: L R
Sampling rate : 48.0 kHz
Frame rate : 31.250 FPS (1536 spf)
Compression mode : Lossy
Stream size : 103 MiB (3%)
Title : MVO
Language : Russian
Default : Yes
Forced : No
Audio #2
ID : 3
Format : E-AC-3
Format/Info : Audio Coding 3
Format settings, Endianness : Big
Codec ID : A_EAC3
Duration : 1 h 15 min
Bit rate mode : Constant
Bit rate : 224 kb/s
Channel(s) : 2 channels
Channel positions : Front: L R
Sampling rate : 48.0 kHz
Frame rate : 187.500 FPS (256 spf)
Compression mode : Lossy
Stream size : 121 MiB (3%)
Language : English
Default : No
Forced : No
Text
ID : 4
Format : UTF-8
Codec ID : S_TEXT/UTF8
Codec ID/Info : UTF-8 Plain Text
Title : SDH
Language : English
Default : No
Forced : No

Скриншоты

Релиз от:
Автор релиза:
[korsars.info].t25641.torrent 
Торрент: Зарегистрирован [ 2020-01-14 13:00 ] · D0C349D19B89470D947C60C5A2036E832B62A12D

Скачать .torrent

Размер .torrent файла 21 KB

Статус: проверено
.torrent скачан: 1 раз
Размер: 3,93 GB
Правила
Похожие темы

[Профиль] [ЛС]
Показать сообщения:    
Ответить на тему

Текущее время: 09-Авг 15:40

Часовой пояс: UTC + 4



Вы не можете начинать темы
Вы не можете отвечать на сообщения
Вы не можете редактировать свои сообщения
Вы не можете удалять свои сообщения
Вы не можете голосовать в опросах
Вы не можете прикреплять файлы к сообщениям
Вы можете скачивать файлы
Анализ сайта korsars.info Яндекс.Метрика