Тайное воссоединение / Ui-hyeong-je / Secret Reunion (2010) BDRip 1080p | P, A

Ответить на тему
Статистика раздачи [Обновить пиров]
Размер:  10,76 GB   |    Зарегистрирован:  12 дней   |    .torrent скачан:  0 раз
Раздают:  6  [  0 KB/s  ]   Качают:  1  [  0 KB/s  ]   Подробная статистика пиров
 
   
 
 
Автор Сообщение

4udaki ®

Оффлайн



Пол: Мужской

Стаж: 5 лет 2 месяца

Наличие запрета:

Сообщений: 5548

Откуда: korsars.info

Отдача: 2 Mb/s

Загрузка: 20 Mb/s

Нажми

Создавать темы 14-Янв-2020 17:00

[Цитировать]

Информация о фильме
Название: Тайное воссоединение
Оригинальное название: Ui-hyeong-je / Secret Reunion
Год выхода: 2010
Жанр: Триллер, драма, боевик
Режиссер: Чан Хун
В ролях: Кан Хо Сон, Дон Вон Кан, Кук Хван Чон, Хи Сок Юн, Чан Сок Ко, Со Юн Ли, Ин Ги Чон, Кван Гю Ким, Чон У Чхве, Хёк Квон Пак
О фильме:
Ли Хан-гю, агент Национальной службы разведки, выслеживает "Тень", убийцу из Северной Кореи, который охотится на изменников родины. Сон Джи-вон, контактное лицо "Тени", отправляется с ним на очередную миссию. Но операция проваливается и для шпионов с Севера, и с Юга: Сон Джи-вона подозревают в предательстве и вынуждают скрыться, а Ли Хан-гю увольняют за самоуправство и провал задания. Однако через несколько лет случай вновь сводит их вместе, когда один уже не шпион, а другой — не разведчик.

Страна: Корея Южная
Студия: Showbox, Mediaplex, Rubicon Pictures, Michigan Venture Capital
Продолжительность: 01:57:17
Перевод: Профессиональный многоголосый, Aвторский
Файл
Кодек: x.264
Качество: BDRip 1080p
Видео: MPEG-4 AVC, 11.6 Mбит/с, 1920x804, 23.976 кадр/с
Аудио #1: Русский (АС3, 6 ch, 448 Кбит/с, 48.0 KHz) Профессиональный (многоголосый, закадровый) BBC Saint-Petersburg & LHS
Аудио #2: Русский (АС3, 6 ch, 448 Кбит/с, 48.0 KHz) Aвторский (одноголосый, закадровый) Юрий Сербин
Аудио #3: Корейский (АС3, 6 ch, 640 Кбит/с, 48.0 KHz)
Субтитры: Русские, английские, французские

MediaInfo

Источник: Secret.Reunion.2010.KOREAN.1080p.BluRay.x264-HANDJOB
General
Unique ID : 173496544443932815255158572593727691630 (0x82863811A4E5EFB6B5FE004E283C5B6E)
Complete name : Secret.Reunion.2010.BDRip.1080p.mkv
Format : Matroska
Format version : Version 4
File size : 10.8 GiB
Duration : 1 h 57 min
Overall bit rate : 13.1 Mb/s
Movie name : Ui-hyeong-je AKA Secret Reunion [2010] 1080p BluRay - HJ
Encoded date : UTC 2019-12-18 10:37:26
Writing application : mkvmerge v7.1.0 ('Good Love') 64bit built on Jul 27 2014 13:06:55
Writing library : libebml v1.3.0 + libmatroska v1.4.1
Video
ID : 1
Format : AVC
Format/Info : Advanced Video Codec
Format profile : [email protected]
Format settings : CABAC / 5 Ref Frames
Format settings, CABAC : Yes
Format settings, Reference fra : 5 frames
Codec ID : V_MPEG4/ISO/AVC
Duration : 1 h 57 min
Bit rate : 11.6 Mb/s
Width : 1 920 pixels
Height : 804 pixels
Display aspect ratio : 2.40:1
Frame rate mode : Constant
Frame rate : 23.976 (24000/1001) FPS
Color space : YUV
Chroma subsampling : 4:2:0
Bit depth : 8 bits
Scan type : Progressive
Bits/(Pixel*Frame) : 0.313
Stream size : 9.50 GiB (88%)
Writing library : x264 core 157 r2935 545de2f
Encoding settings : cabac=1 / ref=5 / deblock=1:-3:-3 / analyse=0x3:0x133 / me=umh / subme=10 / psy=1 / psy_rd=1.00:0.00 / mixed_ref=1 / me_range=32 / chroma_me=1 / trellis=2 / 8x8dct=1 / cqm=0 / deadzone=21,11 / fast_pskip=0 / chroma_qp_offset=-2 / threads=12 / lookahead_threads=3 / sliced_threads=0 / nr=0 / decimate=0 / interlaced=0 / bluray_compat=0 / constrained_intra=0 / bframes=16 / b_pyramid=2 / b_adapt=2 / b_bias=0 / direct=3 / weightb=1 / open_gop=0 / weightp=2 / keyint=240 / keyint_min=24 / scenecut=40 / intra_refresh=0 / rc_lookahead=60 / rc=crf / mbtree=0 / crf=20.0 / qcomp=0.60 / qpmin=0 / qpmax=69 / qpstep=4 / vbv_maxrate=62500 / vbv_bufsize=78125 / crf_max=0.0 / nal_hrd=none / filler=0 / ip_ratio=1.40 / pb_ratio=1.30 / aq=2:1.00
Language : Korean
Default : Yes
Forced : No
Color range : Limited
Color primaries : BT.709
Transfer characteristics : BT.709
Matrix coefficients : BT.709
Audio #1
ID : 2
Format : AC-3
Format/Info : Audio Coding 3
Commercial name : Dolby Digital
Codec ID : A_AC3
Duration : 1 h 57 min
Bit rate mode : Constant
Bit rate : 448 kb/s
Channel(s) : 6 channels
Channel layout : L R C LFE Ls Rs
Sampling rate : 48.0 kHz
Frame rate : 31.250 FPS (1536 SPF)
Compression mode : Lossy
Stream size : 376 MiB (3%)
Title : BBC Saint-Petersburg & LHS
Language : Russian
Service kind : Complete Main
Default : Yes
Forced : No
Audio #2
ID : 3
Format : AC-3
Format/Info : Audio Coding 3
Commercial name : Dolby Digital
Codec ID : A_AC3
Duration : 1 h 57 min
Bit rate mode : Constant
Bit rate : 448 kb/s
Channel(s) : 6 channels
Channel layout : L R C LFE Ls Rs
Sampling rate : 48.0 kHz
Frame rate : 31.250 FPS (1536 SPF)
Compression mode : Lossy
Stream size : 376 MiB (3%)
Title : Юрий Сербин
Language : Russian
Service kind : Complete Main
Default : No
Forced : No
Audio #3
ID : 4
Format : AC-3
Format/Info : Audio Coding 3
Commercial name : Dolby Digital
Codec ID : A_AC3
Duration : 1 h 57 min
Bit rate mode : Constant
Bit rate : 640 kb/s
Channel(s) : 6 channels
Channel layout : L R C LFE Ls Rs
Sampling rate : 48.0 kHz
Frame rate : 31.250 FPS (1536 SPF)
Compression mode : Lossy
Stream size : 537 MiB (5%)
Language : Korean
Service kind : Complete Main
Default : No
Forced : No
Text #1
ID : 5
Format : UTF-8
Codec ID : S_TEXT/UTF8
Codec ID/Info : UTF-8 Plain Text
Duration : 1 h 52 min
Bit rate : 65 b/s
Count of elements : 1226
Stream size : 53.6 KiB (0%)
Language : Russian
Default : No
Forced : No
Text #2
ID : 6
Format : UTF-8
Codec ID : S_TEXT/UTF8
Codec ID/Info : UTF-8 Plain Text
Duration : 1 h 52 min
Bit rate : 36 b/s
Count of elements : 1221
Stream size : 29.7 KiB (0%)
Language : English
Default : No
Forced : No
Text #3
ID : 7
Format : UTF-8
Codec ID : S_TEXT/UTF8
Codec ID/Info : UTF-8 Plain Text
Duration : 1 h 51 min
Bit rate : 52 b/s
Count of elements : 1258
Stream size : 43.0 KiB (0%)
Language : French
Default : No
Forced : No
Menu
00:00:00.000 : :Chapter 1
00:11:08.126 : :Chapter 2
00:24:12.326 : :Chapter 3
00:30:55.145 : :Chapter 4
00:43:37.406 : :Chapter 5
00:53:38.757 : :Chapter 6
01:01:29.936 : :Chapter 7
01:10:45.366 : :Chapter 8
01:19:16.252 : :Chapter 9
01:27:48.096 : :Chapter 10
01:35:27.305 : :Chapter 11
01:44:44.403 : :Chapter 12

Скриншоты

[korsars.info].t25650.torrent 
Торрент: Зарегистрирован [ 2020-01-14 17:00 ] · F0F9DE0FFC20B2C577A90BE5C09126B0D5938A41

Скачать .torrent

Скачать .torrent

28 KB

Статус: проверено
.torrent скачан: 0 раз
Размер: 10,76 GB
Правила
Похожие темы

[Профиль] [ЛС]
Показать сообщения:    
Ответить на тему

Текущее время: 27-Янв 14:33

Часовой пояс: UTC + 4



Вы не можете начинать темы
Вы не можете отвечать на сообщения
Вы не можете редактировать свои сообщения
Вы не можете удалять свои сообщения
Вы не можете голосовать в опросах
Вы не можете прикреплять файлы к сообщениям
Вы можете скачивать файлы
Анализ сайта korsars.info Яндекс.Метрика