Эспен в поисках Золотого замка / Askeladden - I Soria Moria slott (2019) BDRip 720p | iTunes

Ответить на тему
Статистика раздачи [Обновить пиров]
Размер:  4,64 GB   |    Зарегистрирован:  8 месяцев 8 дней   |    .torrent скачан:  0 раз
Раздают:  196  [  0 KB/s  ]   Качают:  16  [  0 KB/s  ]   Подробная статистика пиров
 
   
 
 
Автор Сообщение

4udaki ®

Оффлайн

Медали


Пол: Мужской

Стаж: 5 лет 10 месяцев

Наличие запрета:

Сообщений: 7970

Откуда: korsars.info

Отдача: 2 Mb/s

Загрузка: 20 Mb/s

Нажми


Скачать Adguard бесплатно

Создавать темы 14-Янв-2020 21:00

[Цитировать]

Информация о фильме
Название: Эспен в поисках Золотого замка
Оригинальное название: Askeladden - I Soria Moria slott
Год выхода: 2019
Жанр: Фэнтези, приключения
Режиссер: Миккель Бренне Сандемусе
В ролях: Вебьёрн Энгер, Элли Харбоа, Мадс Сьёгард Петтерсен, Элиас Хольмен Сёренсен, Гэбриел Эндрюс, Гискен Арманд, Петронелла Баркер, Фроде Биркеланд, Гард Б. Эйдсвольд, Александра Гйерпен
О фильме:
Король и королева отравлены. Единственный шанс на спасение — живая вода, спрятанная на краю света в стенах таинственного Золотого замка. Эспен с принцессой Кристин отправляются в путешествие, полное опасностей и приключений.

Страна: Норвегия
Студия: Maipo Film, uMedia Family
Продолжительность: 01:41:03
Перевод: Профессиональный (полное дублирование) | iTunes
Файл
Качество: BDRip 720p
Формат: MKV
Кодек: MPEG-4 AVC
Видео: 1280x536 (2,40:1), 24 fps, MPEG-4 AVC ~ 4677 Kbps avg, 0.284 bit/pixel
Аудио: AC3, 48 kHz, 6 ch, ~384.00 kbps avg | русский | iTunes
Аудио: DTS, 48 kHz, 6 ch, ~1509.00 kbps avg | норвежский | Оригинал
Субтитры: Норвежские (полные)

Инфо-файл

Общее
Уникальный идентификатор : 87133516195420775113094812775900503711 (0x418D4E07604B5070C0FF5A15593BDE9F)
Полное имя : Askeladden.I.Soria.Moria.Slott.2019.720p.Blu.Ray.x264.mkv
Формат : Matroska
Версия формата : Version 4
Размер файла : 4,64 Гбайт
Продолжительность : 1 ч. 41 м.
Общий поток : 6572 Кбит/сек
Название фильма : Эспен в поисках Золотого замка (2019)
Дата кодирования : UTC 2020-01-07 05:34:25
Программа кодирования : mkvmerge v41.0.0 ('Smarra') 64-bit
Библиотека кодирования : libebml v1.3.9 + libmatroska v1.5.2
Обложка : Yes
Attachments : cover.jpg
Видео
Идентификатор : 1
Формат : AVC
Формат/Информация : Advanced Video Codec
Профиль формата : [email protected]
Настройки формата : CABAC / 5 Ref Frames
Параметр CABAC формата : Да
Параметр RefFrames формата : 5 кадров
Идентификатор кодека : V_MPEG4/ISO/AVC
Продолжительность : 1 ч. 41 м.
Битрейт : 4677 Кбит/сек
Ширина : 1280 пикселей
Высота : 536 пикселей
Соотношение сторон : 2,40:1
Режим частоты кадров : Постоянный
Частота кадров : 24,000 кадра/сек
Цветовое пространство : YUV
Субдискретизация насыщенности : 4:2:0
Битовая глубина : 8 бит
Тип развёртки : Прогрессивная
Бит/(Пиксели*Кадры) : 0.284
Размер потока : 3,30 Гбайт (71%)
Заголовок : GRUNDiG
Библиотека кодирования : x264 core 159 r2991 1771b55
Настройки программы : cabac=1 / ref=5 / deblock=1:0:0 / analyse=0x3:0x113 / me=umh / subme=9 / psy=1 / psy_rd=1.00:0.00 / mixed_ref=1 / me_range=16 / chroma_me=1 / trellis=1 / 8x8dct=1 / cqm=0 / deadzone=21,11 / fast_pskip=1 / chroma_qp_offset=-2 / threads=17 / lookahead_threads=1 / sliced_threads=0 / nr=0 / decimate=1 / interlaced=0 / bluray_compat=0 / constrained_intra=0 / bframes=3 / b_pyramid=2 / b_adapt=1 / b_bias=0 / direct=3 / weightb=1 / open_gop=0 / weightp=2 / keyint=240 / keyint_min=24 / scenecut=40 / intra_refresh=0 / rc_lookahead=50 / rc=2pass / mbtree=1 / bitrate=4677 / ratetol=1.0 / qcomp=0.60 / qpmin=0 / qpmax=69 / qpstep=4 / cplxblur=20.0 / qblur=0.5 / ip_ratio=1.40 / aq=1:1.00
Язык : Norwegian
Default : Да
Forced : Нет
Аудио #1
Идентификатор : 2
Формат : AC-3
Формат/Информация : Audio Coding 3
Коммерческое название : Dolby Digital
Идентификатор кодека : A_AC3
Продолжительность : 1 ч. 41 м.
Вид битрейта : Постоянный
Битрейт : 384 Кбит/сек
Каналы : 6 каналов
ChannelLayout : L R C LFE Ls Rs
Частота : 48,0 КГц
Частота кадров : 31,250 кадров/сек (1536 SPF)
Метод сжатия : С потерями
Задержка видео : 31 мс.
Размер потока : 278 Мбайт (6%)
Заголовок : iTunes
Язык : Russian
Default : Да
Forced : Нет
Аудио #2
Идентификатор : 3
Формат : DTS
Формат/Информация : Digital Theater Systems
Идентификатор кодека : A_DTS
Продолжительность : 1 ч. 41 м.
Вид битрейта : Постоянный
Битрейт : 1509 Кбит/сек
Каналы : 6 каналов
ChannelLayout : C L R Ls Rs LFE
Частота : 48,0 КГц
Частота кадров : 93,750 кадра/сек (512 SPF)
Битовая глубина : 24 бит
Метод сжатия : С потерями
Размер потока : 1,07 Гбайт (23%)
Заголовок : Original
Язык : Norwegian
Default : Нет
Forced : Нет
Текст
Идентификатор : 4
Формат : UTF-8
Идентификатор кодека : S_TEXT/UTF8
Идентификатор кодека/Информация : UTF-8 Plain Text
Продолжительность : 1 ч. 40 м.
Битрейт : 33 бит/сек
ElementCount : 664
Размер потока : 24,5 Кбайт (0%)
Заголовок : Full
Язык : Norwegian
Default : Нет
Forced : Нет
Меню
00:00:00.000 : en:Chapter 01
00:09:59.708 : en:Chapter 02
00:19:59.583 : en:Chapter 03
00:29:59.833 : en:Chapter 04
00:40:00.000 : en:Chapter 05
00:49:59.583 : en:Chapter 06
00:59:59.583 : en:Chapter 07
01:09:59.958 : en:Chapter 08
01:19:59.708 : en:Chapter 09
01:29:59.666 : en:Chapter 10

Скриншоты

[korsars.info].t25651.torrent 
Торрент: Зарегистрирован [ 2020-01-14 21:00 ] · 87CEF50C3730C45C1AA64CBDBB2DF6BC6DED450C

Скачать .torrent

Размер .torrent файла 12 KB

Статус: проверено
.torrent скачан: 0 раз
Размер: 4,64 GB
Правила
Похожие темы

[Профиль] [ЛС]
Показать сообщения:    
Ответить на тему

Текущее время: 23-Сен 12:27

Часовой пояс: UTC + 4



Вы не можете начинать темы
Вы не можете отвечать на сообщения
Вы не можете редактировать свои сообщения
Вы не можете удалять свои сообщения
Вы не можете голосовать в опросах
Вы не можете прикреплять файлы к сообщениям
Вы можете скачивать файлы
Анализ сайта korsars.info Яндекс.Метрика