Игра престолов / Game Of Thrones [S07] (2017) BDRip-HEVC 1080p от HEVC-CLUB | D, P

Ответить на тему
Статистика раздачи [Обновить пиров]
Размер:  28,73 GB   |    Зарегистрирован:  6 месяцев 25 дней   |    .torrent скачан:  9 раз
Раздают:  40  [  0 KB/s  ]   Качают:  11  [  0 KB/s  ]   Подробная статистика пиров
 
   
 
 
Автор Сообщение

4udaki ®

Оффлайн

Медали


Пол: Мужской

Стаж: 5 лет 9 месяцев

Наличие запрета:

Сообщений: 7682

Откуда: korsars.info

Отдача: 2 Mb/s

Загрузка: 20 Mb/s

Нажми


Скачать Adguard бесплатно

Создавать темы 15-Янв-2020 01:00

[Цитировать]

Название: Игра престолов
Оригинальное название: Game Of Thrones
Год выхода: 2017
Производство: США, Великобритания / Home Box Office (HBO), Television 360, Grok! Studio
Жанр: Фэнтези, драма, боевик, мелодрама
Перевод: Дублированный, многоголосый закадровый
Продолжительность: 7 x ~ 00:50:00
Режиссеры: Дэвид Наттер, Алан Тейлор, Алекс Грейвз
В ролях: Питер Динклэйдж, Лина Хиди, Эмилия Кларк, Кит Харингтон, Софи Тёрнер, Мэйси Уильямс, Николай Костер-Вальдау, Иэн Глен, Алфи Аллен, Джон Брэдли
Описание: Джон отправляется к "матери драконов", чтобы заручиться ее поддержкой в битве с мертвыми и собрать обсидиан на драконьем камне. Он отправляется за Стену, чтобы привести мертвого в Королевскую гавань в качестве доказательства. Дейенерис на драконе спасет отряд безумцев и потеряет одного из драконов, который станет "ручным псом" Короля Ночи. Арья отправляется в Винтерфелл, где осталась Санса с Мизинцем, который пытается натравить сестер друг на друга. Арья перережет ему горло. Там же они встречаются с Браном, который окончательно стал трехглазым вороном. Дейенерис разгромит на драконах армию Джейме. В Королевской гавани состоится большой совет всех воюющих сторон, где будет представлен "живой мертвец". Серсея за закрытыми дверьми пообещает Тириону поддержку в битве с Королем Ночи, но это будет обман. Джон с Дейенерис отправятся в Винтерфелл, на борту корабля между ними произойдет секс. Тем временем Король Ночь добрался со своей армией до Стены и разрушил ее.
Формат: MKV
Качество: BDRip-HEVC 1080p
Видео : HEVC/X.265, 1920x1080, ~3775-5726 кбит/сек, 10 bit
Аудио 1 : AC3, 6 ch, 448 Kbps - Русский, Дублированный (Кравец)
Аудио 2 : AC3, 6 ch, 640 Kbps - Русский, MVO (LostFilm)
Аудио 3 : AC3, 6 ch, 640 Kbps - Русский, MVO (AlexFilm)
Аудио 4 : AC3, 6 ch, 640 Kbps - Русский, MVO (Fox)
Аудио 5 : AC3, 6 ch, 640 Kbps - Русский, MVO (FocusStudio)
Аудио 6 : AC3, 6 ch, 640 Kbps - Русский, MVO (NewStudio)
Аудио 7 : AC3, 6 ch, 640 Kbps - Русский, MVO (OmskBird)
Аудио 8 : AC3, 6 ch, 640 Kbps - Английский, Original
Субтитры: Русские (форсированные,полные), английские (форсированные,полные)

Mediainfo

x265 info: frame I: 378, Avg QP:17.21 kb/s: 17738.87
x265 info: frame P: 16275, Avg QP:18.68 kb/s: 10217.20
x265 info: frame B: 73120, Avg QP:20.64 kb/s: 3222.32
x265 info: Weighted P-Frames: Y:7.4% UV:6.1%
x265 info: Weighted B-Frames: Y:7.6% UV:5.8%
x265 info: consecutive B-frames: 2.1% 2.3% 16.9% 16.6% 9.6% 32.1% 6.5% 6.1% 2.7% 2.1% 1.6% 0.8% 0.3% 0.3%
General
Unique ID : 114713553218896086597226099829816512594 (0x564D06D6EF1CCDF2FA117C965DF15052)
Complete name : D:Download Game_Of_Thrones_Season 07#01 Драконий камень.mkv
Format : Matroska
Format version : Version 4
File size : 3.57 GiB
Duration : 58 min 52 s
Overall bit rate : 8 678 kb/s
Movie name : Драконий камень / Dragonstone
Encoded date : UTC 2019-12-18 05:21:32
Writing application : mkvmerge v40.0.0 ('Old Town Road + Pony') 64-bit
Writing library : libebml v1.3.9 + libmatroska v1.5.2
Cover : Yes
Attachments : Cover.jpg
Video
ID : 1
Format : HEVC
Format/Info : High Efficiency Video Coding
Format profile : Main [email protected]@High
Codec ID : V_MPEGH/ISO/HEVC
Duration : 58 min 40 s
Bit rate : 3 775 kb/s
Width : 1 920 pixels
Height : 1 080 pixels
Display aspect ratio : 16:9
Frame rate mode : Constant
Frame rate : 23.976 (24000/1001) FPS
Color space : YUV
Chroma subsampling : 4:2:0
Bit depth : 10 bits
Bits/(Pixel*Frame) : 0.076
Stream size : 1.55 GiB (43%)
Title : Dragonstone
Writing library : x265 2.9+9-f74003e88622:[Windows][GCC 8.2.0][64 bit] 10bit
Encoding settings : cpuid=1111039 / frame-threads=16 / numa-pools=16 / wpp / no-pmode / no-pme / no-psnr / no-ssim / log-level=3 / input-csp=1 / input-res=1920x1080 / interlace=0 / total-frames=0 / level-idc=41 / high-tier=1 / uhd-bd=0 / ref=5 / allow-non-conformance / no-repeat-headers / annexb / no-aud / no-hrd / info / hash=0 / no-temporal-layers / open-gop / min-keyint=24 / keyint=240 / gop-lookahead=0 / bframes=16 / b-adapt=2 / b-pyramid / bframe-bias=0 / rc-lookahead=80 / lookahead-slices=6 / scenecut=40 / radl=0 / no-intra-refresh / ctu=64 / min-cu-size=8 / rect / amp / max-tu-size=32 / tu-inter-depth=4 / tu-intra-depth=4 / limit-tu=1 / rdoq-level=2 / dynamic-rd=0.00 / no-ssim-rd / signhide / no-tskip / nr-intra=0 / nr-inter=0 / no-constrained-intra / no-strong-intra-smoothing / max-merge=5 / limit-refs=3 / no-limit-modes / me=3 / subme=7 / merange=57 / temporal-mvp / weightp / weightb / no-analyze-src-pics / deblock=-3:-3 / no-sao / no-sao-non-deblock / rd=6 / no-early-skip / rskip / no-fast-intra / no-tskip-fast / no-cu-lossless / no-b-intra / no-splitrd-skip / rdpenalty=0 / psy-rd=2.00 / psy-rdoq=1.00 / no-rd-refine / no-lossless / cbqpoffs=0 / crqpoffs=0 / rc=crf / crf=20.5 / qcomp=0.65 / qpstep=4 / stats-write=0 / stats-read=0 / vbv-maxrate=50000 / vbv-bufsize=50000 / vbv-init=0.9 / crf-max=0.0 / crf-min=0.0 / ipratio=1.40 / pbratio=1.30 / aq-mode=2 / aq-strength=0.80 / no-cutree / zone-count=0 / no-strict-cbr / qg-size=32 / no-rc-grain / qpmax=69 / qpmin=0 / no-const-vbv / sar=1 / overscan=0 / videoformat=5 / range=0 / colorprim=2 / transfer=2 / colormatrix=2 / chromaloc=0 / display-window=0 / max-cll=0,0 / min-luma=0 / max-luma=1023 / log2-max-poc-lsb=8 / vui-timing-info / vui-hrd-info / slices=1 / no-opt-qp-pps / no-opt-ref-list-length-pps / no-multi-pass-opt-rps / scenecut-bias=0.00 / no-opt-cu-delta-qp / aq-motion / no-hdr / no-hdr-opt / no-dhdr10-opt / no-idr-recovery-sei / analysis-reuse-level=5 / scale-factor=0 / refine-intra=0 / refine-inter=0 / refine-mv=0 / no-limit-sao / ctu-info=0 / no-lowpass-dct / refine-mv-type=0 / copy-pic=1 / max-ausize-factor=1.0 / no-dynamic-refine / no-single-sei
Language : English
Default : Yes
Forced : No
Color range : Limited
Audio #1
ID : 2
Format : AC-3
Format/Info : Audio Coding 3
Commercial name : Dolby Digital
Codec ID : A_AC3
Duration : 58 min 40 s
Bit rate mode : Constant
Bit rate : 448 kb/s
Channel(s) : 6 channels
Channel layout : L R C LFE Ls Rs
Sampling rate : 48.0 kHz
Frame rate : 31.250 FPS (1536 SPF)
Compression mode : Lossy
Stream size : 188 MiB (5%)
Title : Дубляж (Kravec)
Language : Russian
Service kind : Complete Main
Default : Yes
Forced : No
Audio #2
ID : 3
Format : AC-3
Format/Info : Audio Coding 3
Commercial name : Dolby Digital
Codec ID : A_AC3
Duration : 58 min 40 s
Bit rate mode : Constant
Bit rate : 640 kb/s
Channel(s) : 6 channels
Channel layout : L R C LFE Ls Rs
Sampling rate : 48.0 kHz
Frame rate : 31.250 FPS (1536 SPF)
Compression mode : Lossy
Stream size : 269 MiB (7%)
Title : MVO (LostFilm)
Language : Russian
Service kind : Complete Main
Default : No
Forced : No
Audio #3
ID : 4
Format : AC-3
Format/Info : Audio Coding 3
Commercial name : Dolby Digital
Codec ID : A_AC3
Duration : 58 min 40 s
Bit rate mode : Constant
Bit rate : 640 kb/s
Channel(s) : 6 channels
Channel layout : L R C LFE Ls Rs
Sampling rate : 48.0 kHz
Frame rate : 31.250 FPS (1536 SPF)
Compression mode : Lossy
Stream size : 269 MiB (7%)
Title : MVO (AlexFilm)
Language : Russian
Service kind : Complete Main
Default : No
Forced : No
Audio #4
ID : 5
Format : AC-3
Format/Info : Audio Coding 3
Commercial name : Dolby Digital
Codec ID : A_AC3
Duration : 58 min 40 s
Bit rate mode : Constant
Bit rate : 640 kb/s
Channel(s) : 6 channels
Channel layout : L R C LFE Ls Rs
Sampling rate : 48.0 kHz
Frame rate : 31.250 FPS (1536 SPF)
Compression mode : Lossy
Stream size : 269 MiB (7%)
Title : MVO (Fox)
Language : Russian
Service kind : Complete Main
Default : No
Forced : No
Audio #5
ID : 6
Format : AC-3
Format/Info : Audio Coding 3
Commercial name : Dolby Digital
Codec ID : A_AC3
Duration : 58 min 40 s
Bit rate mode : Constant
Bit rate : 640 kb/s
Channel(s) : 6 channels
Channel layout : L R C LFE Ls Rs
Sampling rate : 48.0 kHz
Frame rate : 31.250 FPS (1536 SPF)
Compression mode : Lossy
Stream size : 269 MiB (7%)
Title : MVO (FocusStudio)
Language : Russian
Service kind : Complete Main
Default : No
Forced : No
Audio #6
ID : 7
Format : AC-3
Format/Info : Audio Coding 3
Commercial name : Dolby Digital
Codec ID : A_AC3
Duration : 58 min 40 s
Bit rate mode : Constant
Bit rate : 640 kb/s
Channel(s) : 6 channels
Channel layout : L R C LFE Ls Rs
Sampling rate : 48.0 kHz
Frame rate : 31.250 FPS (1536 SPF)
Compression mode : Lossy
Stream size : 269 MiB (7%)
Title : MVO (NewStudio)
Language : Russian
Service kind : Complete Main
Default : No
Forced : No
Audio #7
ID : 8
Format : AC-3
Format/Info : Audio Coding 3
Commercial name : Dolby Digital
Codec ID : A_AC3
Duration : 58 min 40 s
Bit rate mode : Constant
Bit rate : 640 kb/s
Channel(s) : 6 channels
Channel layout : L R C LFE Ls Rs
Sampling rate : 48.0 kHz
Frame rate : 31.250 FPS (1536 SPF)
Compression mode : Lossy
Stream size : 269 MiB (7%)
Title : MVO (OmskBird)
Language : Russian
Service kind : Complete Main
Default : No
Forced : No
Audio #8
ID : 9
Format : AC-3
Format/Info : Audio Coding 3
Commercial name : Dolby Digital
Codec ID : A_AC3
Duration : 58 min 40 s
Bit rate mode : Constant
Bit rate : 640 kb/s
Channel(s) : 6 channels
Channel layout : L R C LFE Ls Rs
Sampling rate : 48.0 kHz
Frame rate : 31.250 FPS (1536 SPF)
Compression mode : Lossy
Stream size : 269 MiB (7%)
Title : Original
Language : English
Service kind : Complete Main
Default : No
Forced : No
Text #1
ID : 10
Format : ASS
Codec ID : S_TEXT/ASS
Codec ID/Info : Advanced Sub Station Alpha
Duration : 38 s 960 ms
Bit rate : 154 b/s
Count of elements : 12
Compression mode : Lossless
Stream size : 753 Bytes (0%)
Title : Forced
Language : Russian
Default : Yes
Forced : No
Text #2
ID : 11
Format : UTF-8
Codec ID : S_TEXT/UTF8
Codec ID/Info : UTF-8 Plain Text
Duration : 56 min 58 s
Bit rate : 83 b/s
Count of elements : 635
Stream size : 34.8 KiB (0%)
Title : Full (7kingdoms)
Language : Russian
Default : No
Forced : No
Text #3
ID : 12
Format : UTF-8
Codec ID : S_TEXT/UTF8
Codec ID/Info : UTF-8 Plain Text
Duration : 56 min 53 s
Bit rate : 85 b/s
Count of elements : 636
Stream size : 35.5 KiB (0%)
Title : Full (Opel & Westeros.ru)
Language : Russian
Default : No
Forced : No
Text #4
ID : 13
Format : UTF-8
Codec ID : S_TEXT/UTF8
Codec ID/Info : UTF-8 Plain Text
Duration : 56 min 47 s
Bit rate : 75 b/s
Count of elements : 607
Stream size : 31.3 KiB (0%)
Title : Full (Amedia)
Language : Russian
Default : No
Forced : No
Text #5
ID : 14
Format : UTF-8
Codec ID : S_TEXT/UTF8
Codec ID/Info : UTF-8 Plain Text
Duration : 56 min 47 s
Bit rate : 73 b/s
Count of elements : 577
Stream size : 30.6 KiB (0%)
Title : Full (AMS)
Language : Russian
Default : No
Forced : No
Text #6
ID : 15
Format : UTF-8
Codec ID : S_TEXT/UTF8
Codec ID/Info : UTF-8 Plain Text
Duration : 56 min 47 s
Bit rate : 83 b/s
Count of elements : 632
Stream size : 34.7 KiB (0%)
Title : Full
Language : Russian
Default : No
Forced : No
Text #7
ID : 16
Format : UTF-8
Codec ID : S_TEXT/UTF8
Codec ID/Info : UTF-8 Plain Text
Duration : 57 min 10 s
Bit rate : 54 b/s
Count of elements : 727
Stream size : 22.8 KiB (0%)
Title : Full
Language : English
Default : No
Forced : No
Text #8
ID : 17
Format : UTF-8
Codec ID : S_TEXT/UTF8
Codec ID/Info : UTF-8 Plain Text
Duration : 58 min 20 s
Bit rate : 50 b/s
Count of elements : 636
Stream size : 21.6 KiB (0%)
Title : Full
Language : English
Default : No
Forced : No
Menu
00:00:00.000 : :Chapter 1
00:05:47.680 : :Chapter 2
00:17:05.357 : :Chapter 3
00:26:41.099 : :Chapter 4
00:35:42.765 : :Chapter 5
00:46:41.840 : :Chapter 6
00:51:45.477 : :Chapter 7
00:57:20.061 : :Chapter 8

Скриншоты

Огромная просьба к скачавшим оставаться на раздаче как можно дольше!!!
Релиз от: OldGamer
[korsars.info].t25659.torrent 
Торрент: Зарегистрирован [ 2020-01-15 01:00 ] · BFB115DC3BE7ED88BB7147EB8017BE42E7E4BAEC

Скачать .torrent

Размер .torrent файла 74 KB

Статус: проверено
.torrent скачан: 9 раз
Размер: 28,73 GB
Правила
Похожие темы

[Профиль] [ЛС]
Показать сообщения:    
Ответить на тему

Текущее время: 09-Авг 15:13

Часовой пояс: UTC + 4



Вы не можете начинать темы
Вы не можете отвечать на сообщения
Вы не можете редактировать свои сообщения
Вы не можете удалять свои сообщения
Вы не можете голосовать в опросах
Вы не можете прикреплять файлы к сообщениям
Вы можете скачивать файлы
Анализ сайта korsars.info Яндекс.Метрика