Навсикая из Долины Ветров / Kaze no tani no Naushika / Nausicaa of the Valley of the Wind (1984) BDRip-HEVC 1080p от HEVC CLUB | D, P

Ответить на тему
Статистика раздачи [Обновить пиров]
Размер:  6,12 GB   |    Зарегистрирован:  1 месяц 10 дней   |    .torrent скачан:  0 раз
Раздают:  17  [  0 KB/s  ]   Качают:  4  [  0 KB/s  ]   Подробная статистика пиров
 
   
 
 
Автор Сообщение

4udaki ®

Оффлайн



Пол: Мужской

Стаж: 5 лет 3 месяца

Наличие запрета:

Сообщений: 5928

Откуда: korsars.info

Отдача: 2 Mb/s

Загрузка: 20 Mb/s

Нажми

Создавать темы 15-Янв-2020 09:00

[Цитировать]

Название: Навсикая из Долины Ветров
Оригинальное название: Kaze no tani no Naushika / Nausicaa of the Valley of the Wind / 風の谷のナウシカ-Год выпуска: 1984
Страна: Япония
Жанр: Фэнтези, драма, приключения
Тип: полнометражный фильм
Продолжительность: 01:57:02
Перевод: Дублированный
Субтитры: Русские [RUSCICO], английские-Режиссёр: Хаяо Миядзаки
Студия: Top Craft-Описание: Спустя 1000 лет после гибели индустриальной цивилизации на покрытых ржавчиной и осколками керамики пустошах вырос трутовый лес, источающий ядовитые испарения, грозящие смертью немногим выжившим.
Люди назвали его Море распада.
Под сенью исполинских деревьев обитают насекомые, оберегающие лес от людского вторжения. На своих телах они разносят ядовитые споры, дающие начало новым деревьям. Люди ведут непрекращающуюся борьбу с распространением леса.
На фоне борьбы за выживание пограничные земли раздирают междоусобные войны. Словно поодаль от внешнего мира собственной жизнью живёт Долина ветров, край благоденствия и процветания.-Качество: BDRip-HEVC 1080p
Формат: MKV
Видео кодек: [email protected]
Аудио кодек: AC3, FLAC
Видео: 1920x1036, 23.976 fps, HEVC, ~6442 kbps, 10bit
Аудио: Rus, 48 kHz/16-bit, AC3 2.0, ~192 kbps | Дубляж
Аудио: Rus, 48 kHz/16-bit, AC3 2.0, ~192 kbps | Киномания
Аудио: Rus, 48 kHz/16-bit, AC3 2.0, ~192 kbps | Tycoon
Аудио: Jpn, 48 kHz/16-bit, FLAC 2.0, ~460 kbps | Оригинал
Навигация по главам: Отсутствует-Автор рипа: Alex_A- - -

Внимание!

- H.265/HEVC (High Efficiency Video Coding) - это новый стандарт кодирования видео.
- Стандарт H.265/HEVC является логическим продолжением стандарта H.264/AVC (Advanced Video Coding), и характеризуется более эффективными алгоритмами сжатия, а также поддержкой высокого разрешения вплоть до 8K UHD (8192x4320). Первая версия стандарта H.265 была опубликована в начале 2013 года.
- Рипы в фомате HEVC поддерживается не всеми аппаратными проигрывателями.
- Для корректного воспроизведения может потребоваться обновление ПО.
- Владельцам несовместимого железа просьба не беспокоить, есть альтернативные релизы.

Трейлер

YouTube

Медиаинфо

General
Unique ID : 244682315088645537624412341816351061963 (0xB8141989288EBDEA764B1371A804F7CB)
Complete name : d:HEVCNausicaa Of The Valley Of The WindKaze.no.Tani.no.Naushika.1984.1080p_HEVCCLUB.mkv
Format : Matroska
Format version : Version 4
File size : 6.12 GiB
Duration : 1 h 57 min
Overall bit rate mode : Variable
Overall bit rate : 7 480 kb/s
Movie name : Kaze no Tani no Naushika (1984) - HEVC CLUB
Encoded date : UTC 2019-05-12 15:10:41
Writing application : mkvmerge v33.1.0 ('Primrose') 64-bit
Writing library : libebml v1.3.7 + libmatroska v1.5.0
Cover : Yes
Attachments : cover.jpg
Video
ID : 1
Format : HEVC
Format/Info : High Efficiency Video Coding
Format profile : Main [email protected]@High
Codec ID : V_MPEGH/ISO/HEVC
Duration : 1 h 57 min
Bit rate : 6 442 kb/s
Width : 1 920 pixels
Height : 1 036 pixels
Display aspect ratio : 1.85:1
Frame rate mode : Constant
Frame rate : 23.976 (24000/1001) FPS
Color space : YUV
Chroma subsampling : 4:2:0
Bit depth : 10 bits
Bits/(Pixel*Frame) : 0.135
Stream size : 5.27 GiB (86%)
Title : HEVC CLUB
Writing library : x265 3.0_Au+14-c7e5878bdd31:[Windows][GCC 8.3.0][64 bit] 10bit
Encoding settings : cpuid=1111039 / frame-threads=3 / numa-pools=8 / wpp / no-pmode / no-pme / no-psnr / no-ssim / log-level=2 / input-csp=1 / input-res=1920x1036 / interlace=0 / total-frames=0 / level-idc=41 / high-tier=1 / uhd-bd=0 / ref=5 / no-allow-non-conformance / no-repeat-headers / annexb / no-aud / no-hrd / info / hash=0 / no-temporal-layers / open-gop / min-keyint=23 / keyint=250 / gop-lookahead=0 / bframes=10 / b-adapt=2 / b-pyramid / bframe-bias=0 / rc-lookahead=60 / lookahead-slices=3 / scenecut=40 / radl=0 / no-splice / no-intra-refresh / ctu=64 / min-cu-size=8 / no-rect / no-amp / max-tu-size=32 / tu-inter-depth=3 / tu-intra-depth=3 / limit-tu=0 / rdoq-level=1 / dynamic-rd=2.00 / no-ssim-rd / signhide / no-tskip / nr-intra=0 / nr-inter=0 / no-constrained-intra / no-strong-intra-smoothing / max-merge=2 / limit-refs=0 / no-limit-modes / me=2 / subme=5 / merange=57 / temporal-mvp / weightp / weightb / no-analyze-src-pics / deblock=-2:-2 / no-sao / no-sao-non-deblock / rd=3 / no-early-skip / no-rskip / no-fast-intra / no-tskip-fast / no-cu-lossless / no-b-intra / no-splitrd-skip / rdpenalty=0 / psy-rd=1.75 / psy-rdoq=2.50 / no-rd-refine / no-lossless / cbqpoffs=0 / crqpoffs=0 / rc=crf / crf=24.0 / qcomp=0.70 / qpstep=4 / stats-write=0 / stats-read=0 / vbv-maxrate=50000 / vbv-bufsize=50000 / vbv-init=0.9 / crf-max=0.0 / crf-min=0.0 / ipratio=1.40 / pbratio=1.10 / aq-mode=2 / aq-strength=0.05 / cutree / zone-count=0 / no-strict-cbr / qg-size=32 / no-rc-grain / qpmax=69 / qpmin=0 / no-const-vbv / sar=0 / overscan=0 / videoformat=5 / range=0 / colorprim=2 / transfer=2 / colormatrix=2 / chromaloc=0 / display-window=0 / max-cll=0,0 / min-luma=0 / max-luma=1023 / log2-max-poc-lsb=8 / vui-timing-info / vui-hrd-info / slices=1 / opt-qp-pps / opt-ref-list-length-pps / no-multi-pass-opt-rps / scenecut-bias=0.05 / no-opt-cu-delta-qp / aq-motion / no-hdr / no-hdr-opt / no-dhdr10-opt / no-idr-recovery-sei / analysis-reuse-level=5 / scale-factor=0 / refine-intra=0 / refine-inter=0 / refine-mv=0 / refine-ctu-distortion=0 / no-limit-sao / ctu-info=0 / no-lowpass-dct / refine-analysis-type=0 / copy-pic=1 / max-ausize-factor=1.0 / no-dynamic-refine / no-single-sei / no-hevc-aq / no-svt / qp-adaptation-range=1.00
Default : Yes
Forced : Yes
Audio #1
ID : 2
Format : AC-3
Format/Info : Audio Coding 3
Commercial name : Dolby Digital
Codec ID : A_AC3
Duration : 1 h 57 min
Bit rate mode : Constant
Bit rate : 192 kb/s
Channel(s) : 2 channels
Channel layout : L R
Sampling rate : 48.0 kHz
Frame rate : 31.250 FPS (1536 SPF)
Bit depth : 16 bits
Compression mode : Lossy
Stream size : 161 MiB (3%)
Title : Dub
Language : Russian
Service kind : Complete Main
Default : Yes
Forced : No
Audio #2
ID : 3
Format : AC-3
Format/Info : Audio Coding 3
Commercial name : Dolby Digital
Codec ID : A_AC3
Duration : 1 h 57 min
Bit rate mode : Constant
Bit rate : 192 kb/s
Channel(s) : 2 channels
Channel layout : L R
Sampling rate : 48.0 kHz
Frame rate : 31.250 FPS (1536 SPF)
Bit depth : 16 bits
Compression mode : Lossy
Stream size : 161 MiB (3%)
Title : Киномания
Language : Russian
Service kind : Complete Main
Default : No
Forced : No
Audio #3
ID : 4
Format : AC-3
Format/Info : Audio Coding 3
Commercial name : Dolby Digital
Codec ID : A_AC3
Duration : 1 h 57 min
Bit rate mode : Constant
Bit rate : 192 kb/s
Channel(s) : 2 channels
Channel layout : L R
Sampling rate : 48.0 kHz
Frame rate : 31.250 FPS (1536 SPF)
Bit depth : 16 bits
Compression mode : Lossy
Stream size : 161 MiB (3%)
Title : Tycoon
Language : Russian
Service kind : Complete Main
Default : No
Forced : No
Audio #4
ID : 5
Format : FLAC
Format/Info : Free Lossless Audio Codec
Codec ID : A_FLAC
Duration : 1 h 57 min
Bit rate mode : Variable
Bit rate : 460 kb/s
Channel(s) : 2 channels
Channel layout : L R
Sampling rate : 48.0 kHz
Frame rate : 10.417 FPS (4608 SPF)
Bit depth : 16 bits
Compression mode : Lossless
Stream size : 385 MiB (6%)
Title : Original
Writing library : Lavf58.26.101
Language : Japanese
Default : No
Forced : No
Text #1
ID : 6
Format : UTF-8
Codec ID : S_TEXT/UTF8
Codec ID/Info : UTF-8 Plain Text
Duration : 1 h 53 min
Bit rate : 50 b/s
Count of elements : 929
Stream size : 41.6 KiB (0%)
Title : RUSCICO
Language : Russian
Default : Yes
Forced : No
Text #2
ID : 7
Format : UTF-8
Codec ID : S_TEXT/UTF8
Codec ID/Info : UTF-8 Plain Text
Duration : 1 h 55 min
Bit rate : 34 b/s
Count of elements : 1164
Stream size : 29.2 KiB (0%)
Language : English
Default : No
Forced : No

Скриншоты

[korsars.info].t25665.torrent 
Торрент: Зарегистрирован [ 2020-01-15 09:00 ] · 4D20F9D3BE3A225F1096B5AE821F607EF6A99CB2

Скачать .torrent

Скачать .torrent

16 KB

Статус: проверено
.torrent скачан: 0 раз
Размер: 6,12 GB
Правила
Похожие темы

[Профиль] [ЛС]
Показать сообщения:    
Ответить на тему

Текущее время: 25-Фев 13:32

Часовой пояс: UTC + 4



Вы не можете начинать темы
Вы не можете отвечать на сообщения
Вы не можете редактировать свои сообщения
Вы не можете удалять свои сообщения
Вы не можете голосовать в опросах
Вы не можете прикреплять файлы к сообщениям
Вы можете скачивать файлы
Анализ сайта korsars.info Яндекс.Метрика