Арестант no name / Imprisoned (2018) WEB-DL 720p | iTunes

Ответить на тему
Статистика раздачи [Обновить пиров]
Размер:  3,21 GB   |    Зарегистрирован:  5 месяцев 28 дней   |    .torrent скачан:  2 раза
Раздают:  19  [  0 KB/s  ]   Качают:  5  [  0 KB/s  ]   Подробная статистика пиров
 
   
 
 
Автор Сообщение

4udaki ®

Оффлайн

Медали


Пол: Мужской

Стаж: 5 лет 8 месяцев

Наличие запрета:

Сообщений: 7486

Откуда: korsars.info

Отдача: 2 Mb/s

Загрузка: 20 Mb/s

Нажми

Создавать темы 17-Янв-2020 01:00

[Цитировать]

Информация о фильме
Название: Арестант no name
Оригинальное название: Imprisoned
Год выхода: 2018
Жанр: Триллер
Режиссер: Пол Кампф
В ролях: Джон Хёрд, Лоренс Фишбёрн, Эсай Моралес, Эдвард Джеймс Олмос, Джон Уэртас, Хуан Пабло Раба, Фернанда Уррехола, Хуана Акоста, Ана Изабелль, Luis de La Rosa
О фильме:
Дилан Берк совершил много ошибок в прошлом, но теперь он живет мирной жизнью, зарабатывает на жизнь рыболовством, а его любимая, Мария, управляет кофейней в морском порту. Однако идиллия не может продолжаться вечно: тюремный надзиратель Даниэль Кальвин, чья жена погибла по вине Дилана 25 лет назад, жаждет мести.

Страна: США
Студия: Equitas Entertainment Partners, Pimienta
Продолжительность: 01:44:16
Перевод: Профессиональный (многоголосый, закадровый) | iTunes
Файл
Формат: MKV
Качество: WEB-DL 720p
Видео: AVC/H.264, 1280x532, ~4015 Kbps
Аудио: AC-3, 6 ch, 384 Kbps
Субтитры: Русские форсированные (хардсаб)

M/I

Общее
Формат : Matroska
Версия формата : Version 4
Размер файла : 3,21 Гбайт
Продолжительность : 1 ч. 44 м.
Общий поток : 4400 Кбит/сек
Дата кодирования : UTC 2019-12-02 19:31:59
Программа кодирования : mkvmerge v8.5.1 ('Where you lead I will follow') 64bit
Библиотека кодирования : libebml v1.3.3 + libmatroska v1.4.4
Видео
Идентификатор : 1
Формат : AVC
Формат/Информация : Advanced Video Codec
Профиль формата : [email protected]
Настройки формата : 2 Ref Frames
Параметр CABAC формата : Нет
Параметр RefFrames формата : 2 кадра
Идентификатор кодека : V_MPEG4/ISO/AVC
Продолжительность : 1 ч. 44 м.
Битрейт : 4015 Кбит/сек
Ширина : 1280 пикселей
Высота : 532 пикселя
Соотношение сторон : 2,40:1
Режим частоты кадров : Постоянный
Частота кадров : 24,000 кадра/сек
Цветовое пространство : YUV
Субдискретизация насыщенности : 4:2:0
Битовая глубина : 8 бит
Тип развёртки : Прогрессивная
Бит/(Пиксели*Кадры) : 0.246
Размер потока : 2,92 Гбайт (91%)
Заголовок : Main Program
Язык : English
Default : Да
Forced : Нет
Цветовой диапазон : Limited
Основные цвета : BT.709
Характеристики трансфера : BT.709
Коэффициенты матрицы : BT.709
Аудио
Идентификатор : 2
Формат : AC-3
Формат/Информация : Audio Coding 3
Коммерческое название : Dolby Digital
Идентификатор кодека : A_AC3
Продолжительность : 1 ч. 44 м.
Вид битрейта : Постоянный
Битрейт : 384 Кбит/сек
Каналы : 6 каналов
ChannelLayout : L R C LFE Ls Rs
Частота : 48,0 КГц
Частота кадров : 31,250 кадров/сек (1536 SPF)
Битовая глубина : 16 бит
Метод сжатия : С потерями
Размер потока : 286 Мбайт (9%)
Заголовок : Russian MVO from iTunes Russia DD 5.1
Язык : Russian
ServiceKind : Complete Main
Default : Да
Forced : Нет
Меню
00:00:00.000 : en:Глава 1
00:08:31.791 : en:Глава 2
00:16:39.124 : en:Глава 3
00:24:48.499 : en:Глава 4
00:32:50.124 : en:Глава 5
00:41:23.582 : en:Глава 6
00:49:32.582 : en:Глава 7
00:57:45.623 : en:Глава 8
01:06:06.164 : en:Глава 9
01:14:42.247 : en:Глава 10
01:22:58.580 : en:Глава 11
01:31:17.455 : en:Глава 12

Скриншоты

[korsars.info].t25706.torrent 
Торрент: Зарегистрирован [ 2020-01-17 01:00 ] · 2A75FA0E9F361D2DAD4050BF35340729597575B9

Скачать .torrent

Размер .torrent файла 17 KB

Статус: проверено
.torrent скачан: 2 раз
Размер: 3,21 GB
Правила

[Профиль] [ЛС]
Показать сообщения:    
Ответить на тему

Текущее время: 14-Июл 08:36

Часовой пояс: UTC + 4



Вы не можете начинать темы
Вы не можете отвечать на сообщения
Вы не можете редактировать свои сообщения
Вы не можете удалять свои сообщения
Вы не можете голосовать в опросах
Вы не можете прикреплять файлы к сообщениям
Вы можете скачивать файлы
Анализ сайта korsars.info Яндекс.Метрика