Достать ножи / Knives Out (2019) DVDScr-AVC | Sub

Ответить на тему
Статистика раздачи [Обновить пиров]
Размер:  1,42 GB   |    Зарегистрирован:  1 месяц 8 дней   |    .torrent скачан:  17 раз
Раздают:  771  [  0 KB/s  ]   Качают:  27  [  0 KB/s  ]   Подробная статистика пиров
 
   
 
 
Автор Сообщение

4udaki ®

Оффлайн



Пол: Мужской

Стаж: 5 лет 3 месяца

Наличие запрета:

Сообщений: 5946

Откуда: korsars.info

Отдача: 2 Mb/s

Загрузка: 20 Mb/s

Нажми

Создавать темы 18-Янв-2020 21:00

[Цитировать]

Информация о фильме
Название: Достать ножи
Оригинальное название: Knives Out
Год выхода: 2019
Жанр: Детектив, комедия, драма, криминал
Режиссер: Райан Джонсон
В ролях: Дэниэл Крэйг, Ана де Армас, Крис Эванс, Джейми Ли Кёртис, Майкл Шеннон, Дон Джонсон, Тони Коллетт, Лакит Стэнфилд, Кристофер Пламмер, Кэтрин Лэнгфорд
О фильме:
Когда сразу после празднования 85-летия известного автора криминальных романов Харлана Тромби виновника торжества находят мёртвым, за расследование берётся обаятельный и дотошный частный детектив Бенуа Блан. Ему предстоит распутать тугую сеть уловок и корыстной лжи, которой его опутывают члены неблагополучной семьи Харлана и преданный ему персонал.

Страна: США
Студия: Lionsgate, Media Rights Capital (MRC), T-Street See
Продолжительность: 02:10:05
Перевод: СУБТИТРЫ
Файл
Кодек: AVC
Качество: DVDScr-AVC | Sub
Видео: MPEG-4 AVC, 1116 Kбит/с, 720x384, 29.970 кадр/с
Звук: Аудио #1: Английский (АС3, 6 ch, 448 Кбит/с, 48.0 KHz)
Субтитры: Русские (Full), английские
► Без Рекламы!

MediaInfo

General
Unique ID : 197571149310261774930444377625778121378 (0x94A2D1BB0C1406B4831E03F928AAEAA2)
Complete name : Knives.Out.2019.DVDSCR.x264.Sub.Rus.mkv
Format : Matroska
Format version : Version 4
File size : 1.42 GiB
Duration : 2 h 10 min
Overall bit rate : 1 564 kb/s
Encoded date : UTC 2020-01-11 10:13:44
Writing application : mkvmerge v7.1.0 ('Good Love') 64bit built on Jul 27 2014 13:06:55
Writing library : libebml v1.3.0 + libmatroska v1.4.1
Video
ID : 1
Format : AVC
Format/Info : Advanced Video Codec
Format profile : [email protected]
Format settings : CABAC / 4 Ref Frames
Format settings, CABAC : Yes
Format settings, Reference fra : 4 frames
Codec ID : V_MPEG4/ISO/AVC
Duration : 2 h 10 min
Bit rate : 1 116 kb/s
Width : 720 pixels
Height : 384 pixels
Display aspect ratio : 1.85:1
Frame rate mode : Constant
Frame rate : 29.970 FPS
Color space : YUV
Chroma subsampling : 4:2:0
Bit depth : 8 bits
Scan type : Progressive
Bits/(Pixel*Frame) : 0.135
Stream size : 1.01 GiB (71%)
Writing library : x264 core 148 r2708 86b7198
Encoding settings : cabac=1 / ref=2 / deblock=1:0:0 / analyse=0x1:0x111 / me=hex / subme=4 / psy=1 / psy_rd=1.00:0.00 / mixed_ref=0 / me_range=16 / chroma_me=1 / trellis=1 / 8x8dct=0 / cqm=0 / deadzone=21,11 / fast_pskip=1 / chroma_qp_offset=0 / threads=12 / lookahead_threads=3 / sliced_threads=0 / nr=0 / decimate=1 / interlaced=0 / bluray_compat=0 / constrained_intra=0 / bframes=3 / b_pyramid=2 / b_adapt=1 / b_bias=0 / direct=1 / weightb=1 / open_gop=0 / weightp=1 / keyint=300 / keyint_min=30 / scenecut=40 / intra_refresh=0 / rc_lookahead=20 / rc=abr / mbtree=1 / bitrate=1116 / ratetol=1.0 / qcomp=0.60 / qpmin=0 / qpmax=69 / qpstep=4 / vbv_maxrate=20000 / vbv_bufsize=25000 / nal_hrd=none / filler=0 / ip_ratio=1.40 / aq=1:1.00
Language : English
Default : Yes
Forced : No
Color range : Limited
Color primaries : BT.601 NTSC
Transfer characteristics : BT.709
Matrix coefficients : BT.601
Audio
ID : 2
Format : AC-3
Format/Info : Audio Coding 3
Commercial name : Dolby Digital
Codec ID : A_AC3
Duration : 2 h 10 min
Bit rate mode : Constant
Bit rate : 448 kb/s
Channel(s) : 6 channels
Channel layout : L R C LFE Ls Rs
Sampling rate : 48.0 kHz
Frame rate : 31.250 FPS (1536 SPF)
Compression mode : Lossy
Stream size : 417 MiB (29%)
Language : English
Service kind : Complete Main
Default : Yes
Forced : No
Text #1
ID : 3
Format : UTF-8
Codec ID : S_TEXT/UTF8
Codec ID/Info : UTF-8 Plain Text
Duration : 2 h 4 min
Bit rate : 126 b/s
Count of elements : 1843
Stream size : 115 KiB (0%)
Language : Russian
Default : Yes
Forced : No
Text #2
ID : 4
Format : UTF-8
Codec ID : S_TEXT/UTF8
Codec ID/Info : UTF-8 Plain Text
Duration : 2 h 4 min
Bit rate : 76 b/s
Count of elements : 1825
Stream size : 70.0 KiB (0%)
Language : English
Default : No
Forced : No

Скриншоты

[korsars.info].t25746.torrent 
Торрент: Зарегистрирован [ 2020-01-18 21:00 ] · F7D2BA98220F049952BDEAED906A84E48012772E

Скачать .torrent

Скачать .torrent

15 KB

Статус: проверено
.torrent скачан: 17 раз
Размер: 1,42 GB
Правила
Похожие темы

[Профиль] [ЛС]
Показать сообщения:    
Ответить на тему

Текущее время: 27-Фев 17:49

Часовой пояс: UTC + 4



Вы не можете начинать темы
Вы не можете отвечать на сообщения
Вы не можете редактировать свои сообщения
Вы не можете удалять свои сообщения
Вы не можете голосовать в опросах
Вы не можете прикреплять файлы к сообщениям
Вы можете скачивать файлы
Анализ сайта korsars.info Яндекс.Метрика