Милая / Sweetheart (2019) WEB-DL 1080p | L1

Ответить на тему
Статистика раздачи [Обновить пиров]
Размер:  4,55 GB   |    Зарегистрирован:  30 дней   |    .torrent скачан:  1 раз
Раздают:  55  [  0 KB/s  ]   Качают:  2  [  0 KB/s  ]   Подробная статистика пиров
 
   
 
 
Автор Сообщение

4udaki ®

Оффлайн



Пол: Мужской

Стаж: 5 лет 3 месяца

Наличие запрета:

Сообщений: 5880

Откуда: korsars.info

Отдача: 2 Mb/s

Загрузка: 20 Mb/s

Нажми

Создавать темы 21-Янв-2020 09:00

[Цитировать]

Информация о фильме
Название: Милая
Оригинальное название: Sweetheart
Год выхода: 2019
Жанр: Ужасы, триллер
Режиссер: Джастин Диллард
В ролях: Эмори Коэн, Кирси Клемонс, Ханна Мэнгэн Лоуренс, Эндрю Кроуфорд
О фильме:
Потерпев крушение в океане, молодая женщина Дженн выбирается на небольшой остров. К берегу также прибивает одного из её друзей, но вскоре тяжелораненый парень умирает. Похоронив друга и кое-как обустроившись на острове, Дженн вскоре сталкивается с непредвиденной угрозой — оказывается, из моря по ночам выходит плотоядное чудовище.

Страна: США
Студия: Blumhouse Productions
Продолжительность: 01:22:46
Перевод: Любительский одноголосый
Файл
Кодек: AVC
Качество: WEB-DL 1080p | Sweetheart.2019.1080p.AMZN.WEB-DL.DDP5.1.x264-NTG
Видео: MPEG-4 AVC, 6851 Kбит/с, 1920x800, 23.976 кадр/с
Звук: ► Без Рекламы!
Аудио #1: Русский (АС3, 2 ch, 192 Кбит/с, 48.0 KHz) Любительский (одноголосый, закадровый) datynet
Аудио #2: Русский (АС3, 2 ch, 192 Кбит/с, 48.0 KHz) Любительский (одноголосый, закадровый) Хихикающий доктор
Аудио #3: Английский (E-АС3, 6 ch, 640 Кбит/с, 48.0 KHz)
Субтитры: английские
Трейлер

MediaInfo

Источник: Sweetheart.2019.1080p.AMZN.WEB-DL.DDP5.1.x264-NTG
General
Unique ID : 186712667094233040987208112778112399815 (0x8C778D394871387D9AED2C72B527F9C7)
Complete name : Sweetheart.2019.AMZN.WEB-DL.1080p.mkv
Format : Matroska
Format version : Version 4
File size : 4.55 GiB
Duration : 1 h 22 min
Overall bit rate : 7 876 kb/s
Encoded date : UTC 2019-10-17 17:54:24
Writing application : mkvmerge v7.1.0 ('Good Love') 64bit built on Jul 27 2014 13:06:55
Writing library : libebml v1.3.0 + libmatroska v1.4.1
Video
ID : 1
Format : AVC
Format/Info : Advanced Video Codec
Format profile : [email protected]
Format settings : CABAC / 4 Ref Frames
Format settings, CABAC : Yes
Format settings, Reference fra : 4 frames
Codec ID : V_MPEG4/ISO/AVC
Duration : 1 h 22 min
Bit rate mode : Constant
Bit rate : 6 851 kb/s
Nominal bit rate : 10 000 kb/s
Width : 1 920 pixels
Height : 800 pixels
Display aspect ratio : 2.40:1
Frame rate mode : Constant
Frame rate : 23.976 (24000/1001) FPS
Color space : YUV
Chroma subsampling : 4:2:0
Bit depth : 8 bits
Scan type : Progressive
Bits/(Pixel*Frame) : 0.186
Stream size : 3.96 GiB (87%)
Language : English
Default : Yes
Forced : No
Color range : Limited
Color primaries : BT.709
Transfer characteristics : BT.709
Matrix coefficients : BT.709
Audio #1
ID : 2
Format : AC-3
Format/Info : Audio Coding 3
Commercial name : Dolby Digital
Codec ID : A_AC3
Duration : 1 h 22 min
Bit rate mode : Constant
Bit rate : 192 kb/s
Channel(s) : 2 channels
Channel layout : L R
Sampling rate : 48.0 kHz
Frame rate : 31.250 FPS (1536 SPF)
Bit depth : 16 bits
Compression mode : Lossy
Stream size : 114 MiB (2%)
Title : datynet
Language : Russian
Service kind : Complete Main
Default : Yes
Forced : No
Audio #2
ID : 3
Format : AC-3
Format/Info : Audio Coding 3
Commercial name : Dolby Digital
Codec ID : A_AC3
Duration : 1 h 22 min
Bit rate mode : Constant
Bit rate : 192 kb/s
Channel(s) : 2 channels
Channel layout : L R
Sampling rate : 48.0 kHz
Frame rate : 31.250 FPS (1536 SPF)
Bit depth : 16 bits
Compression mode : Lossy
Stream size : 114 MiB (2%)
Title : Xixidok
Language : Russian
Service kind : Complete Main
Default : No
Forced : No
Audio #3
ID : 4
Format : E-AC-3
Format/Info : Enhanced AC-3
Commercial name : Dolby Digital Plus
Codec ID : A_EAC3
Duration : 1 h 22 min
Bit rate mode : Constant
Bit rate : 640 kb/s
Channel(s) : 6 channels
Channel layout : L R C LFE Ls Rs
Sampling rate : 48.0 kHz
Frame rate : 31.250 FPS (1536 SPF)
Compression mode : Lossy
Stream size : 379 MiB (8%)
Language : English
Service kind : Complete Main
Default : No
Forced : No
Text #1
ID : 5
Format : UTF-8
Codec ID : S_TEXT/UTF8
Codec ID/Info : UTF-8 Plain Text
Duration : 1 h 20 min
Bit rate : 20 b/s
Count of elements : 393
Stream size : 12.1 KiB (0%)
Language : English
Default : No
Forced : No
Text #2
ID : 6
Format : UTF-8
Codec ID : S_TEXT/UTF8
Codec ID/Info : UTF-8 Plain Text
Duration : 1 h 22 min
Bit rate : 26 b/s
Count of elements : 682
Stream size : 15.8 KiB (0%)
Title : SDH
Language : English
Default : No
Forced : No

Скриншоты

[korsars.info].t25801.torrent 
Торрент: Зарегистрирован [ 2020-01-21 09:00 ] · 734EAC1F2C0A99A91373549EC3FF293DB4C03DCE

Скачать .torrent

Скачать .torrent

12 KB

Статус: проверено
.torrent скачан: 1 раз
Размер: 4,55 GB
Правила
Похожие темы

[Профиль] [ЛС]
Показать сообщения:    
Ответить на тему

Текущее время: 20-Фев 20:26

Часовой пояс: UTC + 4



Вы не можете начинать темы
Вы не можете отвечать на сообщения
Вы не можете редактировать свои сообщения
Вы не можете удалять свои сообщения
Вы не можете голосовать в опросах
Вы не можете прикреплять файлы к сообщениям
Вы можете скачивать файлы
Анализ сайта korsars.info Яндекс.Метрика