Обратный отсчет / Countdown (2019) BDRip-AVC от KORSARS.INFO | iTunes

Ответить на тему
Статистика раздачи [Обновить пиров]
Размер:  744 MB   |    Зарегистрирован:  8 дней   |    .torrent скачан:  0 раз
Раздают:  52  [  0 KB/s  ]   Качают:  8  [  0 KB/s  ]   Подробная статистика пиров
 
   
 
 
Автор Сообщение

4udaki ®

Оффлайн



Пол: Мужской

Стаж: 5 лет 3 месяца

Наличие запрета:

Сообщений: 5869

Откуда: korsars.info

Отдача: 2 Mb/s

Загрузка: 20 Mb/s

Нажми

Создавать темы 11-Фев-2020 05:00

[Цитировать]

Информация о фильме
Название: Обратный отсчет
Оригинальное название: Countdown
Год выпуска: 2019
Жанр: Ужасы, триллер
Режиссер: Джастин Дек
В ролях: Элизабет Лэйл, Питер Фачинелли, Джордан Кэллоуэй, Энн Уинтерс, Талиса Элиана Бэйтмэн, Пи Джей Бирн, Тичина Арнольд, Том Сегура, Чарли МакДермотт, Лана МакКиссак, Остин Заджур, Диллон Лэйн, Джанни Элиза Маи, Джон Бишоп, Уиллоу Хейл, Джонни Берриман, Натан Мур, Лиза Линк, Марисела Зумбадо, Дирк Роджерс, Рамсей Филипс, Чак Филипов, Энн МакКарти (II), Джон Барболла, Мариано Бигдавг Мендоса
О фильме:
В моду вошло новое мобильное приложение, установив которое, человек узнаёт, сколько ему осталось жить. Думая, что всё это просто шутка, девушка Квин запускает его у себя на телефоне и оно показывает, что ей осталось жить не больше трёх дней. Вскоре Квин понимает, что приложение реально предсказывает точную дату смерти. И теперь девушке надо срочно придумать, как обмануть свою судьбу...

Страна: США
Студия: Boies/Schiller Film Group, Wrigley Pictures
Продолжительность: 01:30:40
Перевод: Дублированный | iTunes
Файл
Формат: MKV
Качество: BDRip-AVC
Видео: MPEG-4 AVC, 784x328, - 1072 Кбит/с
Аудио: AAC-HE, 2 ch, - 76 Кбит/с
Субтитры: Нет

MI

Общее
Уникальный идентификатор : 119908102811833963293739979099998272612 (0x5A3575E8708C3CE6C01A6F6E86F03C64)
Полное имя : D:MOVIESCountdown.2019.BDRip-AVC.ExKinoRay.mkv
Формат : Matroska
Версия формата : Version 4 / Version 2
Размер файла : 744 Мбайт
Продолжительность : 1 ч. 30 м.
Общий поток : 1148 Кбит/сек
Дата кодирования : UTC 2020-01-16 04:15:36
Программа кодирования : mkvmerge v35.0.0 ('All The Love In The World') 64-bit
Библиотека кодирования : libebml v1.3.9 + libmatroska v1.5.2
Видео
Идентификатор : 1
Формат : AVC
Формат/Информация : Advanced Video Codec
Профиль формата : [email protected]
Параметр CABAC формата : Да
Параметр RefFrames формата : 12 кадров
Идентификатор кодека : V_MPEG4/ISO/AVC
Продолжительность : 1 ч. 30 м.
Битрейт : 1072 Кбит/сек
Ширина : 784 пикселя
Высота : 328 пикселей
Соотношение сторон : 2,40:1
Режим частоты кадров : Постоянный
Частота кадров : 23,976 (24000/1001) кадра/сек
Цветовое пространство : YUV
Субдискретизация насыщенности : 4:2:0
Битовая глубина : 8 бит
Тип развёртки : Прогрессивная
Бит/(Пиксели*Кадры) : 0.174
Размер потока : 694 Мбайт (93%)
Библиотека кодирования : x264 core 159 r2991 1771b55
Настройки программы : cabac=1 / ref=12 / deblock=1:-2:-2 / analyse=0x3:0x133 / me=umh / subme=11 / psy=1 / psy_rd=1.00:0.08 / mixed_ref=1 / me_range=32 / chroma_me=1 / trellis=2 / 8x8dct=1 / cqm=0 / deadzone=21,11 / fast_pskip=0 / chroma_qp_offset=-3 / threads=6 / lookahead_threads=1 / sliced_threads=0 / nr=0 / decimate=0 / interlaced=0 / bluray_compat=0 / constrained_intra=0 / bframes=12 / b_pyramid=2 / b_adapt=2 / b_bias=0 / direct=3 / weightb=1 / open_gop=0 / weightp=2 / keyint=240 / keyint_min=23 / scenecut=40 / intra_refresh=0 / rc=2pass / mbtree=0 / bitrate=1072 / ratetol=1.0 / qcomp=0.60 / qpmin=0 / qpmax=69 / qpstep=4 / cplxblur=20.0 / qblur=0.5 / ip_ratio=1.40 / pb_ratio=1.30 / aq=1:1.00
Default : Да
Forced : Нет
Аудио
Идентификатор : 2
Формат : AAC
Формат/Информация : Advanced Audio Codec
Профиль формата : HE-AAC / LC
Идентификатор кодека : A_AAC
Продолжительность : 1 ч. 30 м.
Битрейт : 76,0 Кбит/сек
Каналы : 2 канала
Расположение каналов : Front: L R
Частота : 48,0 КГц / 24,0 КГц
Частота кадров : 23,438 кадра/сек (1024 SPF)
Метод сжатия : С потерями
Задержка видео : 31 мс.
Размер потока : 49,3 Мбайт (7%)
Default : Да
Forced : Нет
Меню
00:00:00.000 : en:Глава 01
00:03:14.694 : en:Глава 02
00:08:07.028 : en:Глава 03
00:14:14.937 : en:Глава 04
00:18:02.999 : en:Глава 05
00:24:23.462 : en:Глава 06
00:31:47.989 : en:Глава 07
00:35:37.552 : en:Глава 08
00:39:21.943 : en:Глава 09
00:44:15.736 : en:Глава 10
00:47:26.177 : en:Глава 11
00:50:52.925 : en:Глава 12
00:55:49.304 : en:Глава 13
00:59:32.027 : en:Глава 14
01:07:01.059 : en:Глава 15
01:09:26.496 : en:Глава 16
01:15:02.456 : en:Глава 17
01:20:53.891 : en:Глава 18
01:22:54.261 : en:Глава 19
01:24:05.165 : en:Глава 20

Скриншоты


[korsars.info].t26278.torrent 
Торрент: Зарегистрирован [ 2020-02-11 05:00 ] · F47E21655A56677140764A049FD8580FAFA5DBEA

Скачать .torrent

Скачать .torrent

16 KB

Статус: проверено
.torrent скачан: 0 раз
Размер: 744 MB
Правила
Похожие темы

[Профиль] [ЛС]
Показать сообщения:    
Ответить на тему

Текущее время: 19-Фев 15:53

Часовой пояс: UTC + 4



Вы не можете начинать темы
Вы не можете отвечать на сообщения
Вы не можете редактировать свои сообщения
Вы не можете удалять свои сообщения
Вы не можете голосовать в опросах
Вы не можете прикреплять файлы к сообщениям
Вы можете скачивать файлы
Анализ сайта korsars.info Яндекс.Метрика