Агент Коди Бэнкс / Agent Cody Banks (2003) BDRip 720p от ivandubskoj | D, P, P2

Ответить на тему
Статистика раздачи [Обновить пиров]
Размер:  4,84 GB   |    Зарегистрирован:  8 дней   |    .torrent скачан:  0 раз
Раздают:  9  [  0 KB/s  ]   Качают:  5  [  0 KB/s  ]   Подробная статистика пиров
 
   
 
 
Автор Сообщение

4udaki ®

Оффлайн



Пол: Мужской

Стаж: 5 лет 3 месяца

Наличие запрета:

Сообщений: 5869

Откуда: korsars.info

Отдача: 2 Mb/s

Загрузка: 20 Mb/s

Нажми

Создавать темы 11-Фев-2020 05:00

[Цитировать]

Информация о фильме
Название: Агент Коди Бэнкс
Оригинальное название: Agent Cody Banks
Год выхода: 2003
Жанр: Комедия, боевик, приключения, фантастика, мелодрама, семейный
Режиссёр: Харальд Цварт
В ролях: Фрэнки Муниз, Хилари Дафф, Энджи Хэрмон, Кит Дэвид, Синтия Стивенсон, Арнольд Вослу, Дэниэл Ройбак, Иэн МакШейн, Даррелл Хэммонд, Мартин Донован
О фильме:
История о подростке по имени Коди Бэнкс, которого правительство США нанимает в качестве спецагента для выполнения особого задания. Миссия такова, что для ее выполнения нужен еще не вполне взрослый человек, которого можно было бы использовать в течение 10 лет и более. В его первоначальное задачу входит очаровать одно милое юное создание, с тем, чтобы правительство потом могло подобраться к ее папочке, который построил "Нанобоут", обладающий гораздо большими способностями, чем об этом было заявлено (чистить нефтяные пятна с поверхности океана).

Выпущено: США, Канада, Metro-Goldwyn-Mayer (MGM), Dylan Sellers Productions, Madacy Entertainment Group Inc., Maverick Films, Splendid Pictures
Продолжительность: 01:42:08
Перевод: Дублированный (Невафильм), профессиональный многоголосый, профессиональный двухголосый
Оригинальная аудио-дорожка: Английская
Файл
Кодек: MPEG-4 AVC
Качество: BDRip 720p [Исходник: Blu-ray (1080p) от BlueBird]
Видео: MPEG-4 AVC, 1280x544 (2.35:1), 4800 Кбит/с, 23.976 кадр/с, 0.288 bit/pixel
Аудио #1: Русский, Dolby AC3, 48000 Гц, 448 Кбит/с, 6 каналов (5.1) - DUB [Невафильм]
Аудио #2: Русский, Dolby AC3, 48000 Гц, 448 Кбит/с, 6 каналов (5.1) - MVO
Аудио #3: Русский, Dolby AC3, 48000 Гц, 448 Кбит/с, 6 каналов (5.1) - DVO
Аудио #4: Английский, Dolby AC3, 48000 Гц, 640 Кбит/с, 6 каналов (5.1) - Оригинал
Субтитры: Русские, украинские, английские (полные) SRT
Навигация по главам: Есть (Сохранены оригинальные чаптеры, как на Blu-ray)

x264

x264 [info]: profile High, level 4.1
x264 [info]: frame I:1496 Avg QP:16.52 size:118829
x264 [info]: frame P:37128 Avg QP:19.25 size: 41827
x264 [info]: frame B:108305 Avg QP:20.69 size: 17966
x264 [info]: consecutive B-frames: 4.2% 5.4% 13.1% 20.8% 16.9% 33.8% 4.3% 1.5%

MediaInfo

General
Unique ID : 210558551185766083979480902379862349656 (0x9E681A14A5980561AB0963821AA1D758)
Complete name : Agent.Cody.Banks.2003.BDRip.720p.mkv
Format : Matroska
Format version : Version 4 / Version 2
File size : 4.84 GiB
Duration : 1h 42mn
Overall bit rate : 6 787 Kbps
Movie name : Агент Коди Бэнкс / Agent Cody Banks (2003) BDRip (720p) от ivandubskoj
Encoded date : UTC 2016-05-21 11:27:26
Writing application : mkvmerge v7.9.0 ('Birds') 64bit
Writing library : libebml v1.3.1 + libmatroska v1.4.2
Video
ID : 1
Format : AVC
Format/Info : Advanced Video Codec
Format profile : [email protected]
Format settings, CABAC : Yes
Format settings, ReFrames : 10 frames
Codec ID : V_MPEG4/ISO/AVC
Duration : 1h 42mn
Bit rate : 4 800 Kbps
Width : 1 280 pixels
Height : 544 pixels
Display aspect ratio : 2.35:1
Frame rate mode : Constant
Frame rate : 23.976 fps
Color space : YUV
Chroma subsampling : 4:2:0
Bit depth : 8 bits
Scan type : Progressive
Bits/(Pixel*Frame) : 0.288
Stream size : 3.33 GiB (69%)
Title : Agent Cody Banks (2003)
Writing library : x264 core 148 r2597 e86f3a1
Encoding settings : cabac=1 / ref=10 / deblock=1:-3:-3 / analyse=0x3:0x113 / me=umh / subme=11 / psy=1 / psy_rd=1.00:0.00 / mixed_ref=1 / me_range=32 / chroma_me=1 / trellis=2 / 8x8dct=1 / cqm=0 / deadzone=21,11 / fast_pskip=0 / chroma_qp_offset=-2 / threads=6 / lookahead_threads=1 / sliced_threads=0 / nr=0 / decimate=0 / interlaced=0 / bluray_compat=0 / constrained_intra=0 / bframes=7 / b_pyramid=2 / b_adapt=2 / b_bias=0 / direct=3 / weightb=1 / open_gop=0 / weightp=2 / keyint=240 / keyint_min=23 / scenecut=40 / intra_refresh=0 / rc_lookahead=40 / rc=2pass / mbtree=0 / bitrate=4800 / ratetol=1.0 / qcomp=0.60 / qpmin=0 / qpmax=69 / qpstep=4 / cplxblur=20.0 / qblur=0.5 / vbv_maxrate=50000 / vbv_bufsize=62500 / nal_hrd=none / filler=0 / ip_ratio=1.40 / pb_ratio=1.30 / aq=1:1.00
Language : English
Default : Yes
Forced : No
Audio #1
ID : 2
Format : AC-3
Format/Info : Audio Coding 3
Mode extension : CM (complete main)
Format settings, Endianness : Big
Codec ID : A_AC3
Duration : 1h 42mn
Bit rate mode : Constant
Bit rate : 448 Kbps
Channel(s) : 6 channels
Channel positions : Front: L C R, Side: L R, LFE
Sampling rate : 48.0 KHz
Bit depth : 16 bits
Compression mode : Lossy
Stream size : 327 MiB (7%)
Title : DUB [Невафильм]
Language : Russian
Default : Yes
Forced : No
Audio #2
ID : 3
Format : AC-3
Format/Info : Audio Coding 3
Mode extension : CM (complete main)
Format settings, Endianness : Big
Codec ID : A_AC3
Duration : 1h 42mn
Bit rate mode : Constant
Bit rate : 448 Kbps
Channel(s) : 6 channels
Channel positions : Front: L C R, Side: L R, LFE
Sampling rate : 48.0 KHz
Bit depth : 16 bits
Compression mode : Lossy
Stream size : 327 MiB (7%)
Title : MVO
Language : Russian
Default : No
Forced : No
Audio #3
ID : 4
Format : AC-3
Format/Info : Audio Coding 3
Mode extension : CM (complete main)
Format settings, Endianness : Big
Codec ID : A_AC3
Duration : 1h 42mn
Bit rate mode : Constant
Bit rate : 448 Kbps
Channel(s) : 6 channels
Channel positions : Front: L C R, Side: L R, LFE
Sampling rate : 48.0 KHz
Bit depth : 16 bits
Compression mode : Lossy
Stream size : 327 MiB (7%)
Title : DVO
Language : Russian
Default : No
Forced : No
Audio #4
ID : 5
Format : AC-3
Format/Info : Audio Coding 3
Mode extension : CM (complete main)
Format settings, Endianness : Big
Codec ID : A_AC3
Duration : 1h 42mn
Bit rate mode : Constant
Bit rate : 640 Kbps
Channel(s) : 6 channels
Channel positions : Front: L C R, Side: L R, LFE
Sampling rate : 48.0 KHz
Bit depth : 16 bits
Compression mode : Lossy
Stream size : 468 MiB (9%)
Title : Original
Language : English
Default : No
Forced : No
Text #1
ID : 6
Format : UTF-8
Codec ID : S_TEXT/UTF8
Codec ID/Info : UTF-8 Plain Text
Title : Full #1
Language : Russian
Default : No
Forced : No
Text #2
ID : 7
Format : UTF-8
Codec ID : S_TEXT/UTF8
Codec ID/Info : UTF-8 Plain Text
Title : Full #2
Language : Russian
Default : No
Forced : No
Text #3
ID : 8
Format : UTF-8
Codec ID : S_TEXT/UTF8
Codec ID/Info : UTF-8 Plain Text
Title : Full
Language : Ukrainian
Default : No
Forced : No
Text #4
ID : 9
Format : UTF-8
Codec ID : S_TEXT/UTF8
Codec ID/Info : UTF-8 Plain Text
Title : Full
Language : English
Default : No
Forced : No
Menu
00:00:00.000 : en:Chapter 1
00:10:49.065 : en:Chapter 2
00:22:41.777 : en:Chapter 3
00:35:58.281 : en:Chapter 4
00:49:35.973 : en:Chapter 5
01:01:09.207 : en:Chapter 6
01:14:04.648 : en:Chapter 7
01:30:34.053 : en:Chapter 8

Скриншоты

Автор рипа - ivandubskoj
[korsars.info].t26280.torrent 
Торрент: Зарегистрирован [ 2020-02-11 05:00 ] · E2E3B9C2E1DB61996747BF85CEC7F127BE9BE905

Скачать .torrent

Скачать .torrent

25 KB

Статус: проверено
.torrent скачан: 0 раз
Размер: 4,84 GB
Правила
Похожие темы

[Профиль] [ЛС]
Показать сообщения:    
Ответить на тему

Текущее время: 19-Фев 15:53

Часовой пояс: UTC + 4



Вы не можете начинать темы
Вы не можете отвечать на сообщения
Вы не можете редактировать свои сообщения
Вы не можете удалять свои сообщения
Вы не можете голосовать в опросах
Вы не можете прикреплять файлы к сообщениям
Вы можете скачивать файлы
Анализ сайта korsars.info Яндекс.Метрика