Моя девушка убежденная извращенка девственница / Boku no Kanojo ga Majime Sugiru Shobitch na Ken [S01] (2017) BDRip 1080p | P | Kansai

Ответить на тему
Статистика раздачи [Обновить пиров]
Размер:  7,81 GB   |    Зарегистрирован:  7 месяцев 14 дней   |    .torrent скачан:  5 раз
Раздают:  4  [  0 KB/s  ]   Качают:  7  [  0 KB/s  ]   Подробная статистика пиров
 
   
 
 
Автор Сообщение

4udaki ®

Оффлайн

Медали


Пол: Мужской

Стаж: 5 лет 10 месяцев

Наличие запрета:

Сообщений: 7992

Откуда: korsars.info

Отдача: 2 Mb/s

Загрузка: 20 Mb/s

Нажми


Скачать Adguard бесплатно

Создавать темы 11-Фев-2020 13:00

[Цитировать]

Информация о фильме
Название: Моя девушка убежденная извращенка девственница
Оригинальное название: Boku no Kanojo ga Majime Sugiru Shobitch na Ken
Год выхода: 2017
Выпуск: с 12 октября 2017 по 14 декабря 2017
Трансляция: четверг в 00:30 [ночной сеанс] на AT-X
Жанр: комедия, романтика, сёнэн, школа, этти
Автор оригинала: Мацумото Намиру
Снято по манге: Boku no Kanojo ga Majime Sugiru Shojo Bitch na Ken
Режиссер: Нагаяма Нобуёси
В главных ролях: Мицухиро Итики, Юки Яги, Нацуми Ямада, Аои Юки, Мики Хасэ, Марин Мидзутани, Нагацума Дзюри, Мэгуми Накамура, Иори Номидзу
О фильме: Ни для кого не секрет, что парни-школьники частенько помешаны на половых отношениях, ввиду отсутствия таковых. Мыслишки о том, что может светить им на горизонте, так и норовят затмить их юные разумы и свербят в самые неподходящие для того моменты. Но предположим, что есть один парень, совершенно обыкновенный, любопытство к взрослым темам у него на среднем уровне. Вроде как небезразлично, ведь по возрасту положено уже интересоваться, но и до крайностей не доходит. Зовут нашего героя - Харука Шинозаки.
И, как назло, именно ему досталась девчонка, о которой любой озабоченный подросток может только мечтать. Акихо Косака - "комсомолка, спортсменка и просто красавица”. Она изо всех сил пытается стать идеальной девушкой для Харуки, читает кучу статей о межполовых отношениях, как в психологическом плане, так и в физическом. Она стала настоящей эксперткой в этой теме, её выдающимся знаниям мог бы позавидовать любой взрослый, и теперь Акихо готова исполнить любые фантазии своего молодого человека.-
Страна: Япония
Студия:
Продолжительность: 10 серий x ~00:24:00
Перевод : Профессиональный (многоголосый, закадровый) KANSAI (2017 год)
Цензура: Отсутствует-Файл
Формат: MKV
Кодек: AVC
Качество: BDRip 1080p Moozzi2
Видео 1920x1080 (16:9), 23.976 fps, 3 665 kb/s (0.074 bit/pixel)
Аудио №1: AC-3, 48,0 КГц, 2 ch, 192 Кбит/сек, CBR | | KANSAI
Аудио №2: AFLAC, 48.0 kHz, 2 ch, 676 kb/s, VBR | | Japan (Оригинал)
Субтитры (Russian): ass, внешние | полный перевод-

Список Эпизодов

01. No, Don`t Open It So Wide Please...
02. "Just Whip It Out Now!" ...Can I Say That?
03. Ah, This Is My First Time Having Two at Once...
04. S-so This Is How It Goes, Huh...
05. It Tore... What Do I Do?!
06. D-Don`t Show This to Anyone Else, Okay?
07. Jeez... I Can`t Get My Mind Off of It...
08. I-I`m Not Saying You Can Take It That Far!
09. I Told You, Not So Suddenly!!
10. I Can`t... Take It... Any Longer!
-

MediaInfo

General
Unique ID : 228518543684534492817532214577917284352 (0xABEB1213B13B0E3AAC3678BB44AF5000)
Complete name : D:фильмыFull HD[Moozzi2] Boku no Kanojo ga Majimesugiru Sho-bitch na Ken - TV + SP[Moozzi2] Boku no Kanojo ga Majimesugiru Sho-bitch na Ken - 01 (BD 1920x1080 x.264 Flac).mkv
Format : Matroska
Format version : Version 2
File size : 769 MiB
Duration : 23 min 42 s
Overall bit rate mode : Variable
Overall bit rate : 4 536 kb/s
Encoded date : UTC 2019-11-13 05:12:09
Writing application : mkvmerge v6.9.1 ('Blue Panther') 32bit built on Apr 18 2014 18:15:44
Writing library : libebml v1.3.0 + libmatroska v1.4.1
Video
ID : 1
Format : AVC
Format/Info : Advanced Video Codec
Format profile : [email protected]
Format settings : CABAC / 5 Ref Frames
Format settings, CABAC : Yes
Format settings, ReFrames : 5 frames
Codec ID : V_MPEG4/ISO/AVC
Duration : 23 min 42 s
Bit rate : 3 665 kb/s
Width : 1 920 pixels
Height : 1 080 pixels
Display aspect ratio : 16:9
Frame rate mode : Constant
Frame rate : 23.976 (24000/1001) FPS
Color space : YUV
Chroma subsampling : 4:2:0
Bit depth : 8 bits
Scan type : Progressive
Bits/(Pixel*Frame) : 0.074
Stream size : 621 MiB (81%)
Writing library : x264 core 155 r2901 7d0ff22
Encoding settings : cabac=1 / ref=5 / deblock=1:1:1 / analyse=0x3:0x113 / me=umh / subme=9 / psy=1 / psy_rd=1.00:0.00 / mixed_ref=1 / me_range=32 / chroma_me=1 / trellis=0 / 8x8dct=1 / cqm=0 / deadzone=21,11 / fast_pskip=0 / chroma_qp_offset=-2 / threads=24 / lookahead_threads=2 / sliced_threads=0 / nr=0 / decimate=1 / interlaced=0 / bluray_compat=0 / stitchable=1 / constrained_intra=0 / bframes=3 / b_pyramid=2 / b_adapt=2 / b_bias=0 / direct=1 / weightb=1 / open_gop=0 / weightp=1 / keyint=240 / keyint_min=23 / scenecut=40 / intra_refresh=0 / rc_lookahead=40 / rc=crf / mbtree=1 / crf=16.0 / qcomp=0.60 / qpmin=0 / qpmax=69 / qpstep=4 / ip_ratio=1.40 / aq=1:1.00
Language : Japanese
Default : Yes
Forced : No
Audio #1
ID : 2
Format : AC-3
Format/Info : Audio Coding 3
Commercial name : Dolby Digital
Codec ID : A_AC3
Duration : 23 min 42 s
Bit rate mode : Constant
Bit rate : 192 kb/s
Channel(s) : 2 channels
Channel layout : L R
Sampling rate : 48.0 kHz
Frame rate : 31.250 FPS (1536 SPF)
Bit depth : 16 bits
Compression mode : Lossy
Stream size : 32.5 MiB (4%)
Title : KANSAI [сведение Deadmauvlad]
Language : Russian
Default : No
Forced : No
Audio #2
ID : 3
Format : FLAC
Format/Info : Free Lossless Audio Codec
Codec ID : A_FLAC
Duration : 23 min 42 s
Bit rate mode : Variable
Bit rate : 676 kb/s
Channel(s) : 2 channels
Channel layout : L R
Sampling rate : 48.0 kHz
Frame rate : 11.719 FPS (4096 SPF)
Bit depth : 16 bits
Compression mode : Lossless
Stream size : 115 MiB (15%)
Writing library : libFLAC 1.3.2 (UTC 2017-01-01)
Language : Japanese
Default : No
Forced : No
Text
ID : 4
Format : ASS
Codec ID : S_TEXT/ASS
Codec ID/Info : Advanced Sub Station Alpha
Compression mode : Lossless
Language : Russian
Default : No
Forced : No

Скриншоты

ЦитатаКто-то писал:
Удаление аудиорекламы а также сведение озвучки by DeadmauvladРелиз / Автор рипа: Deadmauvlad / Moozzi2 BD Версия Без Цензуры !!
[korsars.info].t26287.torrent 
Торрент: Зарегистрирован [ 2020-02-11 13:00 ] · BAC2589ADC97E5057445C30B79C95623B5CAF3A0

Скачать .torrent

Размер .torrent файла 12 KB

Статус: проверено
.torrent скачан: 5 раз
Размер: 7,81 GB
Правила
Venom243(24-Июн-20)
Похожие темы

[Профиль] [ЛС]
Показать сообщения:    
Ответить на тему

Текущее время: 26-Сен 06:29

Часовой пояс: UTC + 4



Вы не можете начинать темы
Вы не можете отвечать на сообщения
Вы не можете редактировать свои сообщения
Вы не можете удалять свои сообщения
Вы не можете голосовать в опросах
Вы не можете прикреплять файлы к сообщениям
Вы можете скачивать файлы
Анализ сайта korsars.info Яндекс.Метрика