Спартак / Spartacus (1960) BDRip 1080p от KORSAR | D, Р, Р2, А | 55th Anniversary Restored Edition

Ответить на тему
Статистика раздачи [Обновить пиров]
Размер:  24,51 GB   |    Зарегистрирован:  9 дней   |    .torrent скачан:  1 раз
Раздают:  4  [  0 KB/s  ]   Качают:  7  [  0 KB/s  ]   Подробная статистика пиров
 
   
 
 
Автор Сообщение

4udaki ®

Оффлайн



Пол: Мужской

Стаж: 5 лет 3 месяца

Наличие запрета:

Сообщений: 5880

Откуда: korsars.info

Отдача: 2 Mb/s

Загрузка: 20 Mb/s

Нажми

Создавать темы 11-Фев-2020 21:00

[Цитировать]

Спартак / Spartacus Год выпуска: 1960
Выпущено: США, Universal Pictures, Bryna Productions
Жанр: Драма, приключения, военный, биография, история, экранизация
Режиссеры: Стэнли Кубрик, Энтони Манн
В ролях: Кирк Дуглас, Лоуренс Оливье, Джин Симмонс, Чарльз Лотон, Питер Устинов, Джон Гэвин, Нина Фок,
Джон Айрленд (I), Херберт Лом, Джон Долл, Чарльз МакГроу, Джоанна Барнс, Харольд Стоун, Вуди Строуд, Питер Брокко,
Пол Ламберт, Роберт Дж. Уилки, Ник Дэннис, Фредерик Уорлок, Джон Хойт, Тони Кёртис, Артур Батанидес, Билл Блэкберн,
Бафф Брэйди, Руди Букич, Боб Барнс, Пол Э. Барнс, Аль Кармайкл
О фильме: Экранизация одноимённого романа Говарда Фаста.
Спартак стал символом независимости и стремления к свободе.
Будучи рабом, он поднял восстание против Римской империи. Спартак не мог смириться с тем, что ему, молодому и сильному мужчине,
выпала судьба раба. Объединив вокруг себя таких же, как он, мечтавших о свободе гладиаторов,
он решил сделать то, на что до него еще не решался никто – бросить вызов могучей Римской империи.
Восстание Спартака потерпело поражение, но его пример вдохновлял людей всего мира на борьбу в течение многих столетий.

Продолжительность: 03:16:37
Перевод: Дублированный, профессиональный многоголосый, профессиональный двухголосый, авторский
Субтитры: Русские, английские, украинские
Навигация по главам: Есть
Кодек: х264
Качество: BDRip 1080p
Видео: MPEG-4 AVC, 14350 Кбит/сек, 1920х876, 23,976 кадра/сек
Аудио #01: AC3, 2 ch, 192 Кбит/сек | Русский, профессиональный (Советский дубляж) + вставки MVO
Аудио #02: AC3, 6 ch, 448 Кбит/сек | Русский, профессиональный (многоголосый закадровый)
Аудио #03: AC3, 6 ch, 448 Кбит/сек | Русский, профессиональный (двухголосый закадровый) Пётр Гланц и Инна Королёва
Аудио #04: AC3, 6 ch, 448 Кбит/сек | Русский, профессиональный (многоголосый закадровый) SomeWax
Аудио #05: AC3, 2 ch, 192 Кбит/сек | Русский, профессиональный (двухголосый закадровый) НТВ?, Андрей Градов, Алексей Борзунов, женский?
Аудио #06: AC3, 6 ch, 448 Кбит/сек | Русский, авторский (одноголосый закадровый) Юрий Живов
Аудио #07: AC3, 2 ch, 192 Кбит/сек | Русский, авторский (одноголосый закадровый) Михаил Иванов
Аудио #08: AC3, 2 ch, 192 Кбит/сек | Украинский, профессиональный (двухголосый закадровый) 1+1
Аудио #09: AC3, 6 ch, 448 Кбит/сек | Английский, оригинал
Аудио #10: AC3, 6 ch, 448 Кбит/сек | Французский, профессиональный (полное дублирование)
Субтитры: Русские, украинские, английские
Главы: Есть

Скриншоты

Инфо-файл

x264 [info]: frame I:1697 Avg QP:18.21 size:312297
x264 [info]: frame P:53051 Avg QP:20.35 size:154568
x264 [info]: frame B:228106 Avg QP:21.82 size: 54720
Общее
Уникальный идентификатор : 184382522336211160795735226235937524577 (0x8AB6C837A21B7492A7808BD069268B61)
Полное имя : H:киноСпартак 1960_BDRip 1080p_KORSAR.mkv
Формат : Matroska
Версия формата : Version 2
Размер файла : 24,5 Гбайт
Продолжительность : 3 ч. 16 м.
Общий поток : 17,8 Мбит/сек
Дата кодирования : UTC 2018-02-26 16:53:58
Программа кодирования : mkvmerge v5.8.0 ('No Sleep / Pillow') built on Sep 2 2012 15:37:04
Библиотека кодирования : libebml v1.2.3 + libmatroska v1.3.0
Видео
Идентификатор : 1
Формат : AVC
Формат/Информация : Advanced Video Codec
Профиль формата : [email protected]
Настройки формата : CABAC / 4 Ref Frames
Параметр CABAC формата : Да
Параметр RefFrames формата : 4 кадра
Идентификатор кодека : V_MPEG4/ISO/AVC
Продолжительность : 3 ч. 16 м.
Битрейт : 14,4 Мбит/сек
Ширина : 1920 пикселей
Высота : 876 пикселей
Соотношение сторон : 2,2:1
Режим частоты кадров : Постоянный
Частота кадров : 23,976 (24000/1001) кадра/сек
Цветовое пространство : YUV
Субдискретизация насыщенности : 4:2:0
Битовая глубина : 8 бит
Тип развёртки : Прогрессивная
Бит/(Пиксели*Кадры) : 0.356
Размер потока : 19,3 Гбайт (79%)
Библиотека кодирования : x264 core 152 r2851kMod ba24899
Настройки программы : cabac=1 / ref=4 / deblock=1:-3:-3 / analyse=0x3:0x113 / me=umh / subme=11 / psy=1 / fade_compensate=0.00 / psy_rd=1.00:0.03 / mixed_ref=1 / me_range=48 / chroma_me=1 / trellis=2 / 8x8dct=1 / cqm=0 / deadzone=21,11 / fast_pskip=0 / chroma_qp_offset=-3 / threads=12 / lookahead_threads=2 / sliced_threads=0 / nr=0 / decimate=0 / interlaced=0 / bluray_compat=0 / constrained_intra=0 / bframes=8 / b_pyramid=2 / b_adapt=2 / b_bias=0 / direct=3 / weightb=1 / open_gop=0 / weightp=2 / keyint=240 / keyint_min=23 / scenecut=40 / intra_refresh=0 / rc_lookahead=40 / rc=2pass / mbtree=0 / bitrate=14350 / ratetol=1.0 / qcomp=0.60 / qpmin=0 / qpmax=39 / qpstep=4 / cplxblur=20.0 / qblur=0.5 / vbv_maxrate=50000 / vbv_bufsize=62500 / nal_hrd=none / filler=0 / ip_ratio=1.25 / pb_ratio=1.30 / aq=1:1.00
Язык : English
Default : Да
Forced : Нет
Цветовой диапазон : Limited
Основные цвета : BT.709
Характеристики трансфера : BT.709
Коэффициенты матрицы : BT.709
Аудио #1
Идентификатор : 2
Формат : AC-3
Формат/Информация : Audio Coding 3
Параметр Endianness формата : Big
Идентификатор кодека : A_AC3
Продолжительность : 3 ч. 16 м.
Вид битрейта : Постоянный
Битрейт : 192 Кбит/сек
Каналы : 2 канала
Расположение каналов : Front: L R
Частота : 48,0 КГц
Частота кадров : 31,250 кадров/сек (1536 SPF)
Битовая глубина : 16 бит
Метод сжатия : С потерями
Размер потока : 270 Мбайт (1%)
Заголовок : AC3 2.0 | DUB + MVO
Язык : Russian
Default : Да
Forced : Нет
Аудио #2
Идентификатор : 3
Формат : AC-3
Формат/Информация : Audio Coding 3
Параметр Endianness формата : Big
Идентификатор кодека : A_AC3
Продолжительность : 3 ч. 16 м.
Вид битрейта : Постоянный
Битрейт : 448 Кбит/сек
Каналы : 6 каналов
Расположение каналов : Front: L C R, Side: L R, LFE
Частота : 48,0 КГц
Частота кадров : 31,250 кадров/сек (1536 SPF)
Битовая глубина : 16 бит
Метод сжатия : С потерями
Размер потока : 630 Мбайт (3%)
Заголовок : AC3 5.1 | MVO
Язык : Russian
Default : Нет
Forced : Нет
Аудио #3
Идентификатор : 4
Формат : AC-3
Формат/Информация : Audio Coding 3
Параметр Endianness формата : Big
Идентификатор кодека : A_AC3
Продолжительность : 3 ч. 16 м.
Вид битрейта : Постоянный
Битрейт : 448 Кбит/сек
Каналы : 6 каналов
Расположение каналов : Front: L C R, Side: L R, LFE
Частота : 48,0 КГц
Частота кадров : 31,250 кадров/сек (1536 SPF)
Битовая глубина : 16 бит
Метод сжатия : С потерями
Размер потока : 630 Мбайт (3%)
Заголовок : AC3 5.1 | DVO - Гланц и Королёва
Язык : Russian
Default : Нет
Forced : Нет
Аудио #4
Идентификатор : 5
Формат : AC-3
Формат/Информация : Audio Coding 3
Параметр Endianness формата : Big
Идентификатор кодека : A_AC3
Продолжительность : 3 ч. 16 м.
Вид битрейта : Постоянный
Битрейт : 448 Кбит/сек
Каналы : 6 каналов
Расположение каналов : Front: L C R, Side: L R, LFE
Частота : 48,0 КГц
Частота кадров : 31,250 кадров/сек (1536 SPF)
Битовая глубина : 16 бит
Метод сжатия : С потерями
Размер потока : 630 Мбайт (3%)
Заголовок : AC3 5.1 | MVO - SomeWax
Язык : Russian
Default : Нет
Forced : Нет
Аудио #5
Идентификатор : 6
Формат : AC-3
Формат/Информация : Audio Coding 3
Параметр Endianness формата : Big
Идентификатор кодека : A_AC3
Продолжительность : 3 ч. 16 м.
Вид битрейта : Постоянный
Битрейт : 192 Кбит/сек
Каналы : 2 канала
Расположение каналов : Front: L R
Частота : 48,0 КГц
Частота кадров : 31,250 кадров/сек (1536 SPF)
Битовая глубина : 16 бит
Метод сжатия : С потерями
Размер потока : 270 Мбайт (1%)
Заголовок : AC3 2.0 | MVO - НТВ
Язык : Russian
Default : Нет
Forced : Нет
Аудио #6
Идентификатор : 7
Формат : AC-3
Формат/Информация : Audio Coding 3
Параметр Endianness формата : Big
Идентификатор кодека : A_AC3
Продолжительность : 3 ч. 16 м.
Вид битрейта : Постоянный
Битрейт : 448 Кбит/сек
Каналы : 6 каналов
Расположение каналов : Front: L C R, Side: L R, LFE
Частота : 48,0 КГц
Частота кадров : 31,250 кадров/сек (1536 SPF)
Битовая глубина : 16 бит
Метод сжатия : С потерями
Размер потока : 630 Мбайт (3%)
Заголовок : AC3 5.1 | AVO - Ю. Живов
Язык : Russian
Default : Нет
Forced : Нет
Аудио #7
Идентификатор : 8
Формат : AC-3
Формат/Информация : Audio Coding 3
Параметр Endianness формата : Big
Идентификатор кодека : A_AC3
Продолжительность : 3 ч. 16 м.
Вид битрейта : Постоянный
Битрейт : 192 Кбит/сек
Каналы : 2 канала
Расположение каналов : Front: L R
Частота : 48,0 КГц
Частота кадров : 31,250 кадров/сек (1536 SPF)
Битовая глубина : 16 бит
Метод сжатия : С потерями
Размер потока : 270 Мбайт (1%)
Заголовок : AC3 2.0 | AVO - М. Иванов
Язык : Russian
Default : Нет
Forced : Нет
Аудио #8
Идентификатор : 9
Формат : AC-3
Формат/Информация : Audio Coding 3
Параметр Endianness формата : Big
Идентификатор кодека : A_AC3
Продолжительность : 3 ч. 16 м.
Вид битрейта : Постоянный
Битрейт : 192 Кбит/сек
Каналы : 2 канала
Расположение каналов : Front: L R
Частота : 48,0 КГц
Частота кадров : 31,250 кадров/сек (1536 SPF)
Битовая глубина : 16 бит
Метод сжатия : С потерями
Размер потока : 270 Мбайт (1%)
Заголовок : AC3 2.0 | DVO - 1+1
Язык : Ukrainian
Default : Нет
Forced : Нет
Аудио #9
Идентификатор : 10
Формат : AC-3
Формат/Информация : Audio Coding 3
Параметр Endianness формата : Big
Идентификатор кодека : A_AC3
Продолжительность : 3 ч. 16 м.
Вид битрейта : Постоянный
Битрейт : 448 Кбит/сек
Каналы : 6 каналов
Расположение каналов : Front: L C R, Side: L R, LFE
Частота : 48,0 КГц
Частота кадров : 31,250 кадров/сек (1536 SPF)
Битовая глубина : 16 бит
Метод сжатия : С потерями
Размер потока : 630 Мбайт (3%)
Заголовок : AC3 5.1 | Original
Язык : English
Default : Нет
Forced : Нет
Аудио #10
Идентификатор : 11
Формат : AC-3
Формат/Информация : Audio Coding 3
Параметр Endianness формата : Big
Идентификатор кодека : A_AC3
Продолжительность : 3 ч. 16 м.
Вид битрейта : Постоянный
Битрейт : 448 Кбит/сек
Каналы : 6 каналов
Расположение каналов : Front: L C R, Side: L R, LFE
Частота : 48,0 КГц
Частота кадров : 31,250 кадров/сек (1536 SPF)
Битовая глубина : 16 бит
Метод сжатия : С потерями
Размер потока : 630 Мбайт (3%)
Заголовок : AC3 5.1 | DUB
Язык : French
Default : Нет
Forced : Нет
Текст #1
Идентификатор : 12
Формат : UTF-8
Идентификатор кодека : S_TEXT/UTF8
Идентификатор кодека/Информация : UTF-8 Plain Text
Язык : Russian
Default : Нет
Forced : Нет
Текст #2
Идентификатор : 13
Формат : UTF-8
Идентификатор кодека : S_TEXT/UTF8
Идентификатор кодека/Информация : UTF-8 Plain Text
Заголовок : Forced
Язык : Ukrainian
Default : Нет
Forced : Нет
Текст #3
Идентификатор : 14
Формат : UTF-8
Идентификатор кодека : S_TEXT/UTF8
Идентификатор кодека/Информация : UTF-8 Plain Text
Язык : Ukrainian
Default : Нет
Forced : Нет
Текст #4
Идентификатор : 15
Формат : UTF-8
Идентификатор кодека : S_TEXT/UTF8
Идентификатор кодека/Информация : UTF-8 Plain Text
Язык : English
Default : Нет
Forced : Нет
Текст #5
Идентификатор : 16
Формат : UTF-8
Идентификатор кодека : S_TEXT/UTF8
Идентификатор кодека/Информация : UTF-8 Plain Text
Заголовок : SDN
Язык : English
Default : Нет
Forced : Нет
Меню
00:00:00.000 : en:Overture
00:04:03.368 : en:Main Titles
00:07:44.547 : en:A Disease Called Human Slavery
00:14:04.969 : en:The Gladiatorial School
00:19:04.935 : en:Varinia
00:31:55.872 : en:Marcus Licinius Crassus
00:43:12.840 : en:A Fight to the Death
00:53:02.971 : en:Rebellion
01:01:46.494 : en:Antoninus
01:20:17.980 : en:Snails and Oysters
01:41:46.392 : en:Routing The Romans
01:47:55.094 : en:Entr'acte
01:50:17.384 : en:Glabrus Is Sentenced
01:58:17.894 : en:A Baby!
02:10:43.252 : en:Betrayed
02:30:02.118 : en:The Battle
02:39:35.103 : en:"I Am Spartacus"
02:45:30.087 : en:"a Bad Attack of Dignity"
02:51:55.090 : en:Crassus Woos Varinia
03:00:56.304 : en:Revealing the Rebel
03:10:08.856 : en:At The Gates of Rome
03:13:42.395 : en:The End
[korsars.info].t26298.torrent 
Торрент: Зарегистрирован [ 2020-02-11 21:00 ] · D6E777DFE1B116E40DE7F063B0905B671B698C85

Скачать .torrent

Скачать .torrent

123 KB

Статус: проверено
.torrent скачан: 1 раз
Размер: 24,51 GB
Правила
Похожие темы

[Профиль] [ЛС]
Показать сообщения:    
Ответить на тему

Текущее время: 20-Фев 21:48

Часовой пояс: UTC + 4



Вы не можете начинать темы
Вы не можете отвечать на сообщения
Вы не можете редактировать свои сообщения
Вы не можете удалять свои сообщения
Вы не можете голосовать в опросах
Вы не можете прикреплять файлы к сообщениям
Вы можете скачивать файлы
Анализ сайта korsars.info Яндекс.Метрика