Беспокойный кентавр / Centaur no Nayami [S01] (2017) BDRip от Deadmauvlad | Без Цензуры | Kansai Studio

Ответить на тему
Статистика раздачи [Обновить пиров]
Размер:  3,97 GB   |    Зарегистрирован:  7 дней   |    .torrent скачан:  2 раза
Раздают:  7  [  0 KB/s  ]   Качают:  4  [  0 KB/s  ]   Подробная статистика пиров
 
   
 
 
Автор Сообщение

4udaki ®

Оффлайн



Пол: Мужской

Стаж: 5 лет 3 месяца

Наличие запрета:

Сообщений: 5869

Откуда: korsars.info

Отдача: 2 Mb/s

Загрузка: 20 Mb/s

Нажми

Создавать темы 11-Фев-2020 21:00

[Цитировать]

Русское название: Хлопоты кентавра / Жизнь кентавра / Беспокойный кентавр
Название на Латиницей: Centaur no Nayami
Название на японском: セントールの悩み
Год: 2017
Жанр: комедия, повседневность, сверхъестественное, фэнтези, этти
Автор оригинала: Маруяма Кэй
Снято по манге: Centaur no Nayami
Режиссер: Камицубо Рёки
В ролях: Rachael Messer, Эмбер Ли Коннорс, Чад Форд, Steph Garrett, Alex Moore, Джессика Петерсон, Кристин Саттон, Сэриа Фукагава, Юуки Кувахара, Харука Сираиси-Описание: Обыкновенное аниме про обыкновенные будни обыкновенной школьницы. Что может быть в этом интересного? А вот что. Эта школьница - кентавр! А вы думали, что кентавры не учатся в школе? Ещё как учатся, сидят за партой, дежурят в школе и даже физкультурой занимаются! Правда на форму им приходится тратить уйму метров ткани, но это мелочи. Вы когда-нибудь видели, как кентавр бежит стометровку? А как кентавр плавает в бассейне? Нет? И не увидите, если не посмотрите это аниме.
Главную героиню зовут Химено Кимихара, или же Химе. Она очень добрая и приветливая, но комплексует из-за своего высокого роста и размера груди. Но Химе не единственная необыкновенная девочка в классе. Нозоми наполовину дракониха, у Кёко рога имеются, у старосты класса есть настоящие крылья, а Сасусасу вообще змея наполовину! Окунитесь в мир, где необычные школьницы решают обычные проблемы с уроками, клубной деятельностью и, конечно, первой любовью!-
Перевод: Профессиональный многоголосый [Kansai Studio]
Производство: Япония
Студия: HAOLINERS
Продолжительность: 12 серий x ~00:24:00
Возрастное ограничение: Запрещено для детей
Цензура: Нет (см.спойлер)-Файл
Формат: AVI
Кодек: XviD
Качество: BDRip [Исходник: Centaur no Nayami Vol. 01-06 BDRemux 1080p] thx Den4ik
Видео 720x400 (16:9), 23.976 fps, 1605 Кбит/сек (0.245 bit/pixel)
Аудио №1: AC-3, 48,0 КГц, 2 ch, 192 Кбит/сек, CBR | | Kansai
Аудио №2: AC-3, 48,0 КГц, 2 ch, 192 Кбит/сек, CBR | | Japan (Оригинал)
Субтитры (Russian): ass, внешние | полный перевод-

Список Эпизодов

01. When All Is Said and Done, Everyone Loves Kisses. / Did You Know That a Marathon Is a Microcosm of Life?
02. Beauty Is a Double-Edged Sword. / Water People Living in Water and Mountain People Living in Mountains Really Are Just That.
03. Where Do the Little Ones Get So Much Vitality? / Regardless of the Generation, Magical Girls Are Popular, Huh?
04. Why Are We So Bewildered When We Receive a Love Letter? / You Can Tell What Type a Person Is by Whether They Believe in UMAs and UFOs or Not.
05. Antarcticans Are Like Walking Rumors. / But in the End, the Antarcticans` History and Roots Are a Mystery, Too.
06. Is Being Able to Retrace One`s Past and Ancestors a Reason to Be Happy or Unhappy? / Does Getting a Job Doing What You Love Really Bring Happiness?
07. First Experiences Are Scary and Fun All in One... Pardon the Rhyme. / Occult Movies You Watch as a Kid Are 140% Scarier.
08. Mental Strength Might Be the Biggest Reason One Wins a Serious Competition. / The Uncertainty of What One Believes in... or So I Absurdly Mumble.
09. What Are the Struggles of Someone Known as a Prominent Figure? / What Is the Life of Someone Known as a Prominent Figure Like?
10. When You Choose to Look at Contemporary Art for a Date... Part 1 / When You Choose to Look at Contemporary Art for a Date... Part 2 All.
11. There Are As Many Names of Flowers... As There Are People, But That`s Totally a Lie! / There Are As Many Types of Beauty As There Are People, Which Is Probably True If Used in a Broad Sense?
12. We Tried Making a Fantasy Story in RPG Style. / Fierce Fights! Arm Wrestling! How Will the Battle of the Heroines End?
-

MediaInfo

General
Complete name : [Deadmau- RAWS] Centaur.no.Nayami.2017.S01.RUS.JAP.BDRip.Deadmauvlad.Ep.01.avi
Format : AVI
Format/Info : Audio Video Interleave
File size : 346 MiB
Duration : 23 min 36 s
Overall bit rate : 2 049 kb/s
Movie name : [Deadmau- RAWS] Беспокойный.Кентавр.2017.S01.Kansai.BDRip.Deadmauvlad.Серия.01
Director : Encoder by Deadmauvlad
Genre : комедия, повседневность, этти
Writing application : VirtualDubMod 1.5.10.3 | www.virtualdub-fr.org || (build 2550/release)
Original source form/Name : Аниме
Copyright : Encoder by Deadmauvlad
Comment : Encoder by Deadmauvlad
Video
ID : 0
Format : MPEG-4 Visual
Format profile : Advanced [email protected]
Format settings : BVOP1 / Custom Matrix
Format settings, BVOP : 1
Format settings, QPel : No
Format settings, GMC : No warppoints
Format settings, Matrix : Custom
Codec ID : XVID
Codec ID/Hint : XviD
Duration : 23 min 35 s
Bit rate : 1 651 kb/s
Width : 720 pixels
Height : 400 pixels
Display aspect ratio : 16:9
Frame rate : 23.976 (24000/1001) FPS
Color space : YUV
Chroma subsampling : 4:2:0
Bit depth : 8 bits
Scan type : Progressive
Compression mode : Lossy
Bits/(Pixel*Frame) : 0.239
Stream size : 279 MiB (81%)
Writing library : XviD 73
Audio #1
ID : 1
Format : AC-3
Format/Info : Audio Coding 3
Commercial name : Dolby Digital
Codec ID : 2000
Duration : 23 min 36 s
Bit rate mode : Constant
Bit rate : 192 kb/s
Channel(s) : 2 channels
Channel layout : L R
Sampling rate : 48.0 kHz
Frame rate : 31.250 FPS (1536 SPF)
Bit depth : 16 bits
Compression mode : Lossy
Stream size : 32.4 MiB (9%)
Alignment : Split accross interleaves
Interleave, duration : 42 ms (1.00 video frame)
Interleave, preload duration : 500 ms
Audio #2
ID : 2
Format : AC-3
Format/Info : Audio Coding 3
Commercial name : Dolby Digital
Codec ID : 2000
Duration : 23 min 36 s
Bit rate mode : Constant
Bit rate : 192 kb/s
Channel(s) : 2 channels
Channel layout : L R
Sampling rate : 48.0 kHz
Frame rate : 31.250 FPS (1536 SPF)
Bit depth : 16 bits
Compression mode : Lossy
Stream size : 32.4 MiB (9%)
Alignment : Split accross interleaves
Interleave, duration : 42 ms (1.00 video frame)
Interleave, preload duration : 500 ms

Отсутствие Цензуры

БД релиз аниме сериала Беспокойный кентавр представил вашему вниманию полноценную этти (Фансервисную) версию сериала а именно: наличие "тема сисек Раскрыта !". Предлагаю лицезреть отличия БД (слева) и ТВ Версии (справа).
Скриншоты:
Отсутствие цензуры в моем релизе
Обзор тут
> > https://www.sankakucomplex.com/2017/12/22/centaur-no-nayami-bd-mermaid-nipples/

Скриншоты

Релиз / Автор рипа: >Deadmauvlad <BD Версия Без Цензуры !!
[korsars.info].t26301.torrent 
Торрент: Зарегистрирован [ 2020-02-11 21:00 ] · F3CF29D166291AD58999FF686D54D898D1425122

Скачать .torrent

Скачать .torrent

14 KB

Статус: проверено
.torrent скачан: 2 раз
Размер: 3,97 GB
Правила
Похожие темы

[Профиль] [ЛС]
Показать сообщения:    
Ответить на тему

Текущее время: 19-Фев 15:51

Часовой пояс: UTC + 4



Вы не можете начинать темы
Вы не можете отвечать на сообщения
Вы не можете редактировать свои сообщения
Вы не можете удалять свои сообщения
Вы не можете голосовать в опросах
Вы не можете прикреплять файлы к сообщениям
Вы можете скачивать файлы
Анализ сайта korsars.info Яндекс.Метрика