Правда или действие / Truth or Dare (2018) BDRip 1080p | Расширенная версия | Лицензия

Ответить на тему
Статистика раздачи [Обновить пиров]
Размер:  12,27 GB   |    Зарегистрирован:  7 месяцев 13 дней   |    .torrent скачан:  2 раза
Раздают:  2  [  0 KB/s  ]   Качают:  3  [  0 KB/s  ]   Подробная статистика пиров
 
   
 
 
 
Автор Сообщение

4udaki ®

Оффлайн

Медали


Пол: Мужской

Стаж: 5 лет 10 месяцев

Наличие запрета:

Сообщений: 7992

Откуда: korsars.info

Отдача: 2 Mb/s

Загрузка: 20 Mb/s

Нажми


Скачать Adguard бесплатно

Создавать темы 12-Фев-2020 13:00

[Цитировать]

Правда или действие / Truth or Dare
Страна: США
Производство: Blumhouse Productions
Год выпуска: 2018
Жанр: ужасы, триллер
Продолжительность: 01:40:32
Режиссер: Джефф Уодлоу
В ролях: Люси Хейл, Тайлер Пози, Вайолетт Бин, Хейден Сзето, София Тейлор Али, Нолан Джерард Фанк, Лэндон Либуарон, Сэм Лернер, Том Чои
Описание: Обычная игра «Правда или действие» превращается в жестокую гонку со смертью, когда к процессу подключается нечто сверхъестественное. Стоит кому-то из участников соврать или не выполнить положенное действие, его ждёт жестокая расправа. Кто в итоге сможет выйти победителем в жестокой игре..?

Перевод: Профессиональный (полное дублирование) | BD EUR
Субтитры: русские (full + forced), английские (full + SDH + Commentary)-Качество: BDRip 1080p | DON
Формат: МКV
Видео кодек: AVC
Аудио кодек: DTS | АС3
Видео: 1920x804 (2.40:1), 23.976 fps, MPEG-4 AVC ~15.0 Mbps avg
Аудио №1: 48.0 kHz, Digital Theater Systems, 3/2 (L,C,R,l,r) + LFE ch, ~768 kbps | RUS / DUB
Аудио №2: 48.0 kHz, Digital Theater Systems, 3/2 (L,C,R,l,r) + LFE ch, ~1509 kbps | ENG / Original
Аудио №3: 48.0 kHz, AC3 Dolby Digital, 2/0 (L,R) ch, ~192 kbps | ENG / Commentary by J.Wadlow and L.Hale
Формат субтитров: UTF-8 Plain Text
Бюджет: $3 500 000
Дата премьеры (мир): 12 апреля 2018
Дата премьеры (РФ): 26 апреля 2018, «UPI»

Media Info

General
Unique ID : 174869448946420236459646256800611752948 (0x838EA17CA9764A8982EE5458A9F0DBF4)
Complete name : Truth.or.Dare.2018.Unrated.Director's.Cut.BDRip.1080p-DON.mkv
Format : Matroska
Format version : Version 4 / Version 2
File size : 12.3 GiB
Duration : 1 h 40 min
Overall bit rate : 17.5 Mb/s
Encoded date : UTC 2020-01-08 08:27:17
Writing application : mkvmerge v6.1.0 ('Old Devil') built on Mar 2 2013 14:32:37
Writing library : libebml v1.3.0 + libmatroska v1.4.0
Video
ID : 1
Format : AVC
Format/Info : Advanced Video Codec
Format profile : [email protected]
Format settings : CABAC / 5 Ref Frames
Format settings, CABAC : Yes
Format settings, ReFrames : 5 frames
Codec ID : V_MPEG4/ISO/AVC
Duration : 1 h 40 min
Bit rate : 15.0 Mb/s
Width : 1 920 pixels
Height : 804 pixels
Display aspect ratio : 2.40:1
Frame rate mode : Constant
Frame rate : 23.976 (24000/1001) FPS
Color space : YUV
Chroma subsampling : 4:2:0
Bit depth : 8 bits
Scan type : Progressive
Bits/(Pixel*Frame) : 0.405
Stream size : 10.3 GiB (84%)
Writing library : x264 core 155 r2867+82 a249126 t_mod_Custom_2 [[email protected] X86_64]
Encoding settings : cabac=1 / ref=5 / deblock=1:-3:-3 / analyse=0x3:0x133 / me=umh / subme=10 / psy=1 / fade_compensate=0.00 / psy_rd=1.00:0.00 / mixed_ref=1 / me_range=32 / chroma_me=1 / trellis=2 / 8x8dct=1 / cqm=0 / deadzone=21,11 / fast_pskip=0 / chroma_qp_offset=-2 / threads=12 / lookahead_threads=2 / sliced_threads=0 / nr=0 / decimate=0 / interlaced=0 / bluray_compat=0 / constrained_intra=0 / fgo=0 / bframes=8 / b_pyramid=2 / b_adapt=2 / b_bias=0 / direct=3 / weightb=1 / open_gop=0 / weightp=2 / keyint=250 / keyint_min=23 / scenecut=40 / intra_refresh=0 / rc=2pass / mbtree=0 / bitrate=15000 / ratetol=1.0 / qcomp=0.60 / qpmin=0:0:0 / qpmax=69:69:69 / qpstep=4 / cplxblur=20.0 / qblur=0.5 / ip_ratio=1.30 / pb_ratio=1.20 / aq=3:0.80 / aq-sensitivity=10.00 / aq-factor=1.00:1.00:1.00 / aq2=0 / aq3=0 / zones=10030,29405,b=1.3/39461,54789,b=1.2/88984,89053,b=1.5/89347,94768,b=1.3/100504,100773,b=1.5/127198,140336,b=1.3/140337,140362,b=1.5/140363,140834,b=1.3
Language : English
Default : Yes
Forced : No
Color range : Limited
Matrix coefficients : BT.709
Audio #1
ID : 2
Format : DTS
Format/Info : Digital Theater Systems
Codec ID : A_DTS
Duration : 1 h 40 min
Bit rate mode : Constant
Bit rate : 768 kb/s
Channel(s) : 6 channels
Channel positions : Front: L C R, Side: L R, LFE
Sampling rate : 48.0 kHz
Frame rate : 93.750 FPS (512 SPF)
Bit depth : 24 bits
Compression mode : Lossy
Stream size : 552 MiB (4%)
Language : Russian
Default : Yes
Forced : No
Audio #2
ID : 3
Format : DTS
Format/Info : Digital Theater Systems
Codec ID : A_DTS
Duration : 1 h 40 min
Bit rate mode : Constant
Bit rate : 1 509 kb/s
Channel(s) : 6 channels
Channel positions : Front: L C R, Side: L R, LFE
Sampling rate : 48.0 kHz
Frame rate : 93.750 FPS (512 SPF)
Bit depth : 24 bits
Compression mode : Lossy
Stream size : 1.06 GiB (9%)
Language : English
Default : No
Forced : No
Audio #3
ID : 4
Format : AC-3
Format/Info : Audio Coding 3
Codec ID : A_AC3
Duration : 1 h 40 min
Bit rate mode : Constant
Bit rate : 192 kb/s
Channel(s) : 2 channels
Channel positions : Front: L R
Sampling rate : 48.0 kHz
Frame rate : 31.250 FPS (1536 SPF)
Bit depth : 16 bits
Compression mode : Lossy
Stream size : 138 MiB (1%)
Title : Commentary by co-writer/director Jeff Wadlow and actress Lucy Hale
Language : English
Service kind : Complete Main
Default : No
Forced : No
Text #1
ID : 5
Format : UTF-8
Codec ID : S_TEXT/UTF8
Codec ID/Info : UTF-8 Plain Text
Title : Forced
Language : Russian
Default : Yes
Forced : No
Text #2
ID : 6
Format : UTF-8
Codec ID : S_TEXT/UTF8
Codec ID/Info : UTF-8 Plain Text
Title : Full
Language : Russian
Default : No
Forced : No
Text #3
ID : 7
Format : UTF-8
Codec ID : S_TEXT/UTF8
Codec ID/Info : UTF-8 Plain Text
Language : English
Default : No
Forced : No
Text #4
ID : 8
Format : UTF-8
Codec ID : S_TEXT/UTF8
Codec ID/Info : UTF-8 Plain Text
Title : SDH
Language : English
Default : No
Forced : No
Text #5
ID : 9
Format : UTF-8
Codec ID : S_TEXT/UTF8
Codec ID/Info : UTF-8 Plain Text
Title : Commentary by co-writer/director Jeff Wadlow and actress Lucy Hale
Language : English
Default : No
Forced : No
Menu
00:00:00.000 : en:00:00:00.000
00:02:30.150 : en:00:02:30.150
00:10:48.064 : en:00:10:48.064
00:14:14.395 : en:00:14:14.395
00:20:26.475 : en:00:20:26.475
00:25:15.305 : en:00:25:15.305
00:29:19.716 : en:00:29:19.716
00:34:52.799 : en:00:34:52.799
00:41:21.104 : en:00:41:21.104
00:45:27.933 : en:00:45:27.933
00:48:32.534 : en:00:48:32.534
00:54:41.695 : en:00:54:41.695
00:58:25.418 : en:00:58:25.418
01:05:52.657 : en:01:05:52.657
01:10:03.115 : en:01:10:03.115
01:15:45.958 : en:01:15:45.958
01:21:58.246 : en:01:21:58.246
01:28:25.216 : en:01:28:25.216
01:31:46.000 : en:01:31:46.000
01:37:55.745 : en:01:37:55.745

Скриншоты

[korsars.info].t26313.torrent 
Торрент: Зарегистрирован [ 2020-02-12 13:00 ] · 77ADD83351C5A4494BD1171B7EB1342AD1D0DC03

Скачать .torrent

Размер .torrent файла 62 KB

Статус: проверено
.torrent скачан: 2 раз
Размер: 12,27 GB
Правила
Похожие темы

[Профиль] [ЛС]
Показать сообщения:    
Ответить на тему

Текущее время: 26-Сен 07:02

Часовой пояс: UTC + 4



Вы не можете начинать темы
Вы не можете отвечать на сообщения
Вы не можете редактировать свои сообщения
Вы не можете удалять свои сообщения
Вы не можете голосовать в опросах
Вы не можете прикреплять файлы к сообщениям
Вы можете скачивать файлы
Анализ сайта korsars.info Яндекс.Метрика