Гангстер, коп и дьявол / The Gangster, the Cop, the Devil / Akinjeon (2019) BDRip-AVC от OlLanDGroup | iTunes

Ответить на тему
Статистика раздачи [Обновить пиров]
Размер:  745 MB   |    Зарегистрирован:  7 месяцев 13 дней   |    .torrent скачан:  1 раз
Раздают:  25  [  0 KB/s  ]   Качают:  1  [  0 KB/s  ]   Подробная статистика пиров
 
   
 
 
Автор Сообщение

4udaki ®

Оффлайн

Медали


Пол: Мужской

Стаж: 5 лет 10 месяцев

Наличие запрета:

Сообщений: 7992

Откуда: korsars.info

Отдача: 2 Mb/s

Загрузка: 20 Mb/s

Нажми


Скачать Adguard бесплатно

Создавать темы 12-Фев-2020 13:00

[Цитировать]

Информация о фильме
Название: Бандит, полицейский, дьявол
Оригинальное название: Akinjeon (The Gangster the Cop the Devil)
Год выпуска: 2019
Жанр: Боевик, криминал, триллер
Режиссер: Вон Тхэ Ли
В ролях: Дон Сок Ма, Му Ёль Ким, Сон Гю Ким (I), Юн Сун Ким, Хи Джун О, Мин Чхоль Чхве, Сон Бон Ан, Сын Мок Ю, Дон Вон Хо, Чжэ Мён Ю, Гю Ри Ким, Пэ Су Чон, Тхэ Хо Рю, Сун Бэ Чха, Му Чжэ Мин, Сан Чжон У, По Гён Пак, Со Хван Ли
О фильме:
2005 год. Криминальный босс провинциального города Чхонан Чан Дон-су подвергается нападению серийного убийцы и оказывается единственной выжившей жертвой. Репутация подмочена, единственный способ восстановить авторитет в глазах братвы - найти нападавшего и отомстить. Местный детектив Чон Тхэ-сок всей своей полицейской душой ненавидит организованную преступность, но ему приходится объединить силы с бандитом Дон-су, чтобы изловить ещё более ненавистного маньяка.

Страна: Южная Корея
Студия: B&C Group, BA Entertainment, Balboa Productions
Продолжительность: 01:49:54
Перевод: Дублированный | iTunes
Файл
Формат: MKV
Качество: BDRip-AVC
Источник: |The.Gangster.the.Cop.the.Devil.2019.1080p.BluRay.REMUX.AVC|
Видео: 720x300 (2.40:1), 24 fps, x264 ~883 kbps avg, 0.170 bit/pixel
Звук: 48 kHz, HE-AAC, 2 ch, ~64 kbps avg | RUS
Субтитры: Русские (Forced, Full), английские

MediaInfo:

General
Unique ID : 317974722389397714686254933035793123745 (0xEF37B43576C8ECE2D9CBF21BFD2E09A1)
Complete name : D:OlLanDGroupiTunesThe.Gangster.the.Cop.the.Devil.2019.BDRip(AVC).745Mb.OlLanDGroup.mkv
Format : Matroska
Format version : Version 4
File size : 745 MiB
Duration : 1 h 49 min
Overall bit rate : 948 kb/s
Movie name : The.Gangster.the.Cop.the.Devil.2019.BDRip(AVC).745Mb.OlLanDGroup#Skandar#
Encoded date : UTC 2019-12-10 11:09:15
Writing application : mkvmerge v31.0.0 ('Dolores In A Shoestand') 64-bit
Writing library : libebml v1.3.6 + libmatroska v1.4.9
Video
ID : 1
Format : AVC
Format/Info : Advanced Video Codec
Format profile : [email protected]
Format settings : CABAC / 10 Ref Frames
Format settings, CABAC : Yes
Format settings, ReFrames : 10 frames
Codec ID : V_MPEG4/ISO/AVC
Duration : 1 h 49 min
Bit rate : 883 kb/s
Width : 720 pixels
Height : 300 pixels
Display aspect ratio : 2.40:1
Frame rate mode : Constant
Frame rate : 24.000 FPS
Color space : YUV
Chroma subsampling : 4:2:0
Bit depth : 8 bits
Scan type : Progressive
Bits/(Pixel*Frame) : 0.170
Stream size : 694 MiB (93%)
Title : The.Gangster.the.Cop.the.Devil.2019.BDRip(AVC).745Mb.OlLanDGroup#Skandar#
Writing library : x264 core 146 r2538 121396c
Encoding settings : cabac=1 / ref=10 / deblock=1:-3:-3 / analyse=0x3:0x133 / me=umh / subme=11 / psy=1 / psy_rd=0.97:0.05 / mixed_ref=1 / me_range=48 / chroma_me=1 / trellis=2 / 8x8dct=1 / cqm=0 / deadzone=21,11 / fast_pskip=0 / chroma_qp_offset=-3 / threads=6 / lookahead_threads=1 / sliced_threads=0 / nr=0 / decimate=0 / interlaced=0 / bluray_compat=0 / constrained_intra=0 / bframes=11 / b_pyramid=2 / b_adapt=2 / b_bias=0 / direct=3 / weightb=1 / open_gop=0 / weightp=2 / keyint=240 / keyint_min=23 / scenecut=40 / intra_refresh=0 / rc_lookahead=40 / rc=2pass / mbtree=0 / bitrate=883 / ratetol=1.0 / qcomp=0.60 / qpmin=0 / qpmax=69 / qpstep=4 / cplxblur=20.0 / qblur=0.5 / vbv_maxrate=50000 / vbv_bufsize=62500 / nal_hrd=none / filler=0 / ip_ratio=1.40 / pb_ratio=1.30 / aq=1:1.00
Language : English
Default : Yes
Forced : No
Audio
ID : 2
Format : AAC LC SBR
Format/Info : Advanced Audio Codec Low Complexity with Spectral Band Replication
Commercial name : HE-AAC
Format settings : Explicit
Codec ID : A_AAC-2
Duration : 1 h 49 min
Bit rate : 64.0 kb/s
Channel(s) : 2 channels
Channel layout : L R
Sampling rate : 48.0 kHz
Frame rate : 23.438 FPS (2048 SPF)
Compression mode : Lossy
Delay relative to video : 31 ms
Stream size : 50.3 MiB (7%)
Title : DUB [iTunes]
Language : Russian
Default : Yes
Forced : No
Text #1
ID : 3
Format : UTF-8
Codec ID : S_TEXT/UTF8
Codec ID/Info : UTF-8 Plain Text
Duration : 1 h 41 min
Bit rate : 0 b/s
Count of elements : 6
Stream size : 440 Bytes (0%)
Title : forced
Language : Russian
Default : Yes
Forced : No
Text #2
ID : 4
Format : UTF-8
Codec ID : S_TEXT/UTF8
Codec ID/Info : UTF-8 Plain Text
Duration : 1 h 44 min
Bit rate : 76 b/s
Count of elements : 1212
Stream size : 58.2 KiB (0%)
Title : Full
Language : Russian
Default : No
Forced : No
Text #3
ID : 5
Format : UTF-8
Codec ID : S_TEXT/UTF8
Codec ID/Info : UTF-8 Plain Text
Duration : 1 h 44 min
Bit rate : 52 b/s
Count of elements : 1323
Stream size : 40.4 KiB (0%)
Language : English
Default : No
Forced : No
Menu
00:00:00.000 : en:Chapter 01
00:09:32.875 : en:Chapter 02
00:18:25.750 : en:Chapter 03
00:26:37.458 : en:Chapter 04
00:37:36.625 : en:Chapter 05
00:47:04.458 : en:Chapter 06
01:01:17.083 : en:Chapter 07
01:11:17.125 : en:Chapter 08
01:20:57.583 : en:Chapter 09
01:32:52.833 : en:Chapter 10
01:45:46.500 : en:Chapter 11
01:49:53.916 : en:Chapter 12

Скриншоты

Релиз от:
[korsars.info].t26315.torrent 
Торрент: Зарегистрирован [ 2020-02-12 13:00 ] · C10543B2A66261D2F6BF05FCE129B447BF4A93F8

Скачать .torrent

Размер .torrent файла 16 KB

Статус: проверено
.torrent скачан: 1 раз
Размер: 745 MB
Правила
Похожие темы

[Профиль] [ЛС]
Показать сообщения:    
Ответить на тему

Текущее время: 26-Сен 07:17

Часовой пояс: UTC + 4



Вы не можете начинать темы
Вы не можете отвечать на сообщения
Вы не можете редактировать свои сообщения
Вы не можете удалять свои сообщения
Вы не можете голосовать в опросах
Вы не можете прикреплять файлы к сообщениям
Вы можете скачивать файлы
Анализ сайта korsars.info Яндекс.Метрика