Искусственный разум / Artificial Intelligence: AI (2001) BDRip-HEVC 1080p от HEVC-CLUB | D, P

Ответить на тему
Статистика раздачи [Обновить пиров]
Размер:  17,31 GB   |    Зарегистрирован:  7 месяцев 13 дней   |    .torrent скачан:  4 раза
Раздают:  16  [  0 KB/s  ]   Качают:  3  [  0 KB/s  ]   Подробная статистика пиров
 
   
 
 
Автор Сообщение

4udaki ®

Оффлайн

Медали


Пол: Мужской

Стаж: 5 лет 10 месяцев

Наличие запрета:

Сообщений: 7969

Откуда: korsars.info

Отдача: 2 Mb/s

Загрузка: 20 Mb/s

Нажми


Скачать Adguard бесплатно

Создавать темы 12-Фев-2020 21:00

[Цитировать]

Год выхода: 2001
Страна / Студия: США, Великобритания / Warner Bros., DreamWorks, Amblin Entertainment
Жанр: фантастика, драма
Продолжительность: 02:25:51
Перевод: Дублированный, профессиональный многоголосый
Режиссер: Стивен Спилберг
В ролях: Хэйли Джоэл Осмент, Фрэнсис О`Коннор, Сэм Робардс, Джейк Томас, Джуд Лоу, Уильям Херт, Кен Люн, Кларк Грегг, Кевин Суссман, Том Гэллоп
Описание: В будущем мире вырвавшегося из-под контроля глобального потепления и пугающих достижений науки, смертные живут бок о бок с удивительными и сложными роботами. Но когда продвинутый прототип робота-ребенка по имени Дэвид программируется на проявление бескорыстной любви, члены его человеческой семьи оказываются неготовыми к последствиям такого чувства.
Качество: BDRip 1080p
Видео: HEVC/H.265, 1920x1080, ~14,9 Мbps
Аудио 1: AC3, 6 ch, 640 Kbps - Русский, дублированный
Аудио 2: AC3, 6 ch, 384 Kbps - Русский, MVO (Карусель)
Аудио 3: AC3, 6 ch, 384 Kbps - Украинский, MVO (Так Треба Продакшн)
Аудио 4: AC3, 6 ch, 640 Kbps - Английский
Субтитры: Русские, украинский, английские (полные, SDH)

Релиз от: Mr. Fox

Mediainfo

Общее
Уникальный идентификатор : 279561201657322469704399644559830781470 (0xD2518769AA447F00F32623A371418E1E)
Полное имя : R:Artificial Intelligence AI (2001) BDRip 1080p [HEVC].mkv
Формат : Matroska
Версия формата : Version 4 / Version 2
Размер файла : 17,3 Гбайт
Продолжительность : 2 ч. 25 м.
Общий поток : 17,0 Мбит/сек
Название фильма : Artificial Intelligence: AI (2001)
Дата кодирования : UTC 2020-01-22 06:09:00
Программа кодирования : mkvmerge v40.0.0 ('Old Town Road + Pony') 64-bit
Библиотека кодирования : libebml v1.3.9 + libmatroska v1.5.2
Обложка : Yes
Attachments : cover.jpg
Видео
Идентификатор : 1
Формат : HEVC
Формат/Информация : High Efficiency Video Coding
Профиль формата : Main [email protected]@High
Идентификатор кодека : V_MPEGH/ISO/HEVC
Продолжительность : 2 ч. 25 м.
Битрейт : 14,9 Мбит/сек
Ширина : 1920 пикселей
Высота : 1080 пикселей
Соотношение сторон : 16:9
Режим частоты кадров : Постоянный
Частота кадров : 23,976 (23976/1000) кадра/сек
Частота кадров в оригинале : 23,976 (24000/1001) кадра/сек
Цветовое пространство : YUV
Субдискретизация насыщенности : 4:2:0
Битовая глубина : 10 бит
Бит/(Пиксели*Кадры) : 0.300
Размер потока : 15,2 Гбайт (88%)
Библиотека кодирования : x265 3.2.1+1-b5c86a64bbbe:[Windows][MSVC 1923][64 bit] 10bit
Настройки программы : cpuid=1111039 / frame-threads=3 / numa-pools=12 / wpp / no-pmode / no-pme / no-psnr / no-ssim / log-level=2 / input-csp=1 / input-res=1920x1080 / interlace=0 / total-frames=199455 / level-idc=41 / high-tier=1 / uhd-bd=0 / ref=5 / no-allow-non-conformance / no-repeat-headers / annexb / no-aud / no-hrd / info / hash=0 / no-temporal-layers / open-gop / min-keyint=23 / keyint=240 / gop-lookahead=0 / bframes=16 / b-adapt=2 / b-pyramid / bframe-bias=0 / rc-lookahead=60 / lookahead-slices=4 / scenecut=40 / radl=0 / no-splice / no-intra-refresh / ctu=32 / min-cu-size=8 / rect / amp / max-tu-size=32 / tu-inter-depth=4 / tu-intra-depth=4 / limit-tu=1 / rdoq-level=2 / dynamic-rd=0.00 / no-ssim-rd / signhide / no-tskip / nr-intra=0 / nr-inter=0 / no-constrained-intra / no-strong-intra-smoothing / max-merge=4 / limit-refs=2 / limit-modes / me=3 / subme=7 / merange=57 / temporal-mvp / no-hme / weightp / weightb / no-analyze-src-pics / deblock=-3:-3 / no-sao / no-sao-non-deblock / rd=6 / selective-sao=0 / no-early-skip / no-rskip / no-fast-intra / no-tskip-fast / no-cu-lossless / no-b-intra / no-splitrd-skip / rdpenalty=0 / psy-rd=2.00 / psy-rdoq=1.00 / no-rd-refine / no-lossless / cbqpoffs=0 / crqpoffs=0 / rc=crf / crf=21.0 / qcomp=0.65 / qpstep=4 / stats-write=0 / stats-read=0 / vbv-maxrate=50000 / vbv-bufsize=50000 / vbv-init=0.9 / crf-max=0.0 / crf-min=0.0 / ipratio=1.40 / pbratio=1.30 / aq-mode=1 / aq-strength=1.00 / no-cutree / zone-count=0 / no-strict-cbr / qg-size=32 / no-rc-grain / qpmax=69 / qpmin=0 / no-const-vbv / sar=1 / overscan=0 / videoformat=5 / range=0 / colorprim=1 / transfer=1 / colormatrix=1 / chromaloc=0 / display-window=0 / cll=0,0 / min-luma=0 / max-luma=1023 / log2-max-poc-lsb=8 / vui-timing-info / vui-hrd-info / slices=1 / no-opt-qp-pps / no-opt-ref-list-length-pps / no-multi-pass-opt-rps / scenecut-bias=0.05 / no-opt-cu-delta-qp / no-aq-motion / no-hdr / no-hdr-opt / no-dhdr10-opt / no-idr-recovery-sei / analysis-reuse-level=5 / scale-factor=0 / refine-intra=0 / refine-inter=0 / refine-mv=1 / refine-ctu-distortion=0 / no-limit-sao / ctu-info=0 / no-lowpass-dct / refine-analysis-type=0 / copy-pic=1 / max-ausize-factor=1.0 / no-dynamic-refine / no-single-sei / no-hevc-aq / no-svt / no-field / qp-adaptation-range=1.00
Default : Да
Forced : Нет
Цветовой диапазон : Limited
Основные цвета : BT.709
Характеристики трансфера : BT.709
Коэффициенты матрицы : BT.709
Аудио #1
Идентификатор : 2
Формат : AC-3
Формат/Информация : Audio Coding 3
Идентификатор кодека : A_AC3
Продолжительность : 2 ч. 25 м.
Вид битрейта : Постоянный
Битрейт : 640 Кбит/сек
Каналы : 6 каналов
Расположение каналов : Front: L C R, Side: L R, LFE
Частота : 48,0 КГц
Частота кадров : 31,250 кадров/сек (1536 SPF)
Битовая глубина : 16 бит
Метод сжатия : С потерями
Размер потока : 668 Мбайт (4%)
Заголовок : Дублированный
Язык : Russian
ServiceKind/Strin : Complete Main
Default : Да
Forced : Нет
Аудио #2
Идентификатор : 3
Формат : AC-3
Формат/Информация : Audio Coding 3
Идентификатор кодека : A_AC3
Продолжительность : 2 ч. 25 м.
Вид битрейта : Постоянный
Битрейт : 384 Кбит/сек
Каналы : 6 каналов
Расположение каналов : Front: L C R, Side: L R, LFE
Частота : 48,0 КГц
Частота кадров : 31,250 кадров/сек (1536 SPF)
Битовая глубина : 16 бит
Метод сжатия : С потерями
Задержка видео : 24 мс.
Размер потока : 401 Мбайт (2%)
Заголовок : MVO Karusel
Язык : Russian
ServiceKind/Strin : Complete Main
Default : Нет
Forced : Нет
Аудио #3
Идентификатор : 4
Формат : AC-3
Формат/Информация : Audio Coding 3
Идентификатор кодека : A_AC3
Продолжительность : 2 ч. 25 м.
Вид битрейта : Постоянный
Битрейт : 384 Кбит/сек
Каналы : 6 каналов
Расположение каналов : Front: L C R, Side: L R, LFE
Частота : 48,0 КГц
Частота кадров : 31,250 кадров/сек (1536 SPF)
Битовая глубина : 16 бит
Метод сжатия : С потерями
Задержка видео : 24 мс.
Размер потока : 401 Мбайт (2%)
Заголовок : MVO TakTreba
Язык : Ukrainian
ServiceKind/Strin : Complete Main
Default : Нет
Forced : Нет
Аудио #4
Идентификатор : 5
Формат : AC-3
Формат/Информация : Audio Coding 3
Идентификатор кодека : A_AC3
Продолжительность : 2 ч. 25 м.
Вид битрейта : Постоянный
Битрейт : 640 Кбит/сек
Каналы : 6 каналов
Расположение каналов : Front: L C R, Side: L R, LFE
Частота : 48,0 КГц
Частота кадров : 31,250 кадров/сек (1536 SPF)
Битовая глубина : 16 бит
Метод сжатия : С потерями
Размер потока : 668 Мбайт (4%)
Заголовок : Оригинал / Английский
Язык : English
ServiceKind/Strin : Complete Main
Default : Нет
Forced : Нет
Текст #1
Идентификатор : 6
Формат : UTF-8
Идентификатор кодека : S_TEXT/UTF8
Идентификатор кодека/Информация : UTF-8 Plain Text
Продолжительность : 2 ч. 24 м.
Битрейт : 63 бит/сек
ElementCount : 1156
Размер потока : 67,2 Кбайт (0%)
Язык : Russian
Default : Нет
Forced : Нет
Текст #2
Идентификатор : 7
Формат : UTF-8
Идентификатор кодека : S_TEXT/UTF8
Идентификатор кодека/Информация : UTF-8 Plain Text
Продолжительность : 2 ч. 16 м.
Битрейт : 63 бит/сек
ElementCount : 1173
Размер потока : 63,6 Кбайт (0%)
Язык : Ukrainian
Default : Нет
Forced : Нет
Текст #3
Идентификатор : 8
Формат : UTF-8
Идентификатор кодека : S_TEXT/UTF8
Идентификатор кодека/Информация : UTF-8 Plain Text
Продолжительность : 2 ч. 16 м.
Битрейт : 40 бит/сек
ElementCount : 1125
Размер потока : 40,9 Кбайт (0%)
Язык : English
Default : Нет
Forced : Нет
Текст #4
Идентификатор : 9
Формат : UTF-8
Идентификатор кодека : S_TEXT/UTF8
Идентификатор кодека/Информация : UTF-8 Plain Text
Продолжительность : 2 ч. 16 м.
Битрейт : 43 бит/сек
ElementCount : 1210
Размер потока : 43,4 Кбайт (0%)
Заголовок : SDH
Язык : English
Default : Нет
Forced : Нет
Меню
00:00:00.000 : en:Artificial Intelligence
00:07:09.971 : en:His Life is Merely Pending
00:10:12.654 : en:A Mecha Child
00:15:23.131 : en:Hide and Go Seek
00:18:31.319 : en:Laughter
00:21:42.301 : en:Imprinting Protocol
00:24:21.418 : en:Teddy, a Super-Toy
00:28:41.637 : en:Martin Comes Home
00:30:21.737 : en:The New Super-Toy
00:33:56.159 : en:A Classic Story
00:35:48.980 : en:Competition For Affection
00:39:57.604 : en:Mechas and Orgas
00:45:27.308 : en:Abandoned
00:53:46.432 : en:Gigolo Joe
00:57:45.837 : en:Unregistered Mecha Roundup
01:05:52.949 : en:Flesh Fair: A Celebration of Life
01:09:14.442 : en:"I'm a Boy"
01:17:48.581 : en:Journey Towards the Moon
01:22:28.902 : en:Rouge City
01:25:37.549 : en:Dr. Know
01:31:03.083 : en:"They Hate Us"
01:33:05.413 : en:Escape From Rouge City
01:35:07.285 : en:The City at the End of the World
01:37:55.745 : en:Special and Unique
01:43:43.634 : en:Brothers and Sisters
01:46:51.822 : en:David's Leap
01:49:21.305 : en:A Plea to the Blue Fairy
01:55:41.268 : en:Memories
02:01:33.912 : en:Back Home
02:07:08.204 : en:A Question of Happiness
02:11:42.186 : en:A Perfect Day
02:18:38.727 : en:End Credits

Скриншоты

[korsars.info].t26321.torrent 
Торрент: Зарегистрирован [ 2020-02-12 21:00 ] · 7FFB271373C631C99C842D5A469E396B56AC5F99

Скачать .torrent

Размер .torrent файла 44 KB

Статус: проверено
.torrent скачан: 4 раз
Размер: 17,31 GB
Правила
Похожие темы

[Профиль] [ЛС]
Показать сообщения:    
Ответить на тему

Текущее время: 26-Сен 04:58

Часовой пояс: UTC + 4



Вы не можете начинать темы
Вы не можете отвечать на сообщения
Вы не можете редактировать свои сообщения
Вы не можете удалять свои сообщения
Вы не можете голосовать в опросах
Вы не можете прикреплять файлы к сообщениям
Вы можете скачивать файлы
Анализ сайта korsars.info Яндекс.Метрика