Джей и Молчаливый Боб: Перезагрузка / Jay and Silent Bob Reboot (2019) BDRemux 1080p от селезень | A

Ответить на тему
Статистика раздачи [Обновить пиров]
Размер:  30,63 GB   |    Зарегистрирован:  7 дней   |    .torrent скачан:  0 раз
Раздают:  42  [  0 KB/s  ]   Качают:  10  [  0 KB/s  ]   Подробная статистика пиров
 
   
 
 
Автор Сообщение

4udaki ®

Оффлайн



Пол: Мужской

Стаж: 5 лет 3 месяца

Наличие запрета:

Сообщений: 5880

Откуда: korsars.info

Отдача: 2 Mb/s

Загрузка: 20 Mb/s

Нажми

Создавать темы 13-Фев-2020 01:00

[Цитировать]

Информация о фильме
Название: Джей и молчаливый Боб: Перезагрузка
Оригинальное название: Jay and Silent Bob Reboot
Год выхода: 2019
Жанр: Комедия
Режиссер: Кевин Смит
В ролях: Джейсон Мьюз, Кевин Смит, Мэтт Дэймон, Крис Хемсворт, Бен Аффлек, Мелисса Бенойст, Вэл Килмер, Розарио Доусон, Джо Манганьелло, Джеймс Ван Дер Бик, Харли Куинн Смит, Шеннон Элизабет, Дидрих Бадер

О фильме: Неугомонные приятели Джей и Молчаливый Боб попадаются на незаконном выращивании марихуаны и предстают перед судом, но невесть откуда взявшийся адвокат умудряется снять с них все обвинения, ловко подсунув бумаги на подпись. Зато теперь друзья не имеют права называться своими знаменитыми именами, потому что права на них принадлежат голливудской студии, которая собралась снимать ребут приключений Пыхаря и Хроника. Вне себя от возмущения парочка в очередной раз отправляется в Голливуд сорвать съёмки ненавистного фильма, а по дороге попадет к бывшей девушке Джея, где выясняется, что у того есть дочь-подросток.
Страна: США
Студия: Destro Films, SModcast Pictures, Hideout Pictures
Продолжительность: 01:45:19
Перевод: Авторский | М. Яроцкий (Kyberpunk)
Качество: BDRemux 1080p
Видео: MPEG-4 AVC, 1920x1080, 33.9 Mbit/s, 23.976 fps
Аудио #01: 48 kHz, DTS-HD MA, 5.1, 3924 Kbps | Авторский | RUS |
Аудио #02: 48 kHz, DTS-HD MA, 5.1, 3847 Kbps | Оригинал | ENG |
Субтитры: Русские (полные), английские

Скриншоты

MI

General
Unique ID : 74772546779348755781164711005763906891 (0x3840AB2F02339ED6578CCB300F1BAD4B)
Complete name : D:Jay.and.Silent.Bob.Reboot.2019.BDREMUX.1080p.seleZen.mkv
Format : Matroska
Format version : Version 4
File size : 30.6 GiB
Duration : 1 h 45 min
Overall bit rate mode : Variable
Overall bit rate : 41.6 Mb/s
Movie name : Jay and Silent Bob Reboot 2019 from селезень
Encoded date : UTC 2020-01-30 13:27:12
Writing application : mkvmerge v41.0.0 ('Smarra') 64-bit
Writing library : libebml v1.3.9 + libmatroska v1.5.2
Video
ID : 1
Format : AVC
Format/Info : Advanced Video Codec
Format profile : [email protected]
Format settings : CABAC / 4 Ref Frames
Format settings, CABAC : Yes
Format settings, Reference : 4 frames
Codec ID : V_MPEG4/ISO/AVC
Duration : 1 h 45 min
Bit rate mode : Variable
Bit rate : 33.9 Mb/s
Maximum bit rate : 37.0 Mb/s
Width : 1 920 pixels
Height : 1 080 pixels
Display aspect ratio : 16:9
Frame rate mode : Constant
Frame rate : 23.976 (24000/1001) FPS
Color space : YUV
Chroma subsampling : 4:2:0
Bit depth : 8 bits
Scan type : Progressive
Bits/(Pixel*Frame) : 0.681
Stream size : 24.9 GiB (81%)
Language : English
Default : Yes
Forced : No
Audio #1
ID : 2
Format : DTS XLL
Format/Info : Digital Theater Systems
Commercial name : DTS-HD Master Audio
Codec ID : A_DTS
Duration : 1 h 45 min
Bit rate mode : Variable
Bit rate : 3 924 kb/s
Channel(s) : 6 channels
Channel layout : C L R Ls Rs LFE
Sampling rate : 48.0 kHz
Frame rate : 93.750 FPS (512 SPF)
Bit depth : 24 bits
Compression mode : Lossless
Stream size : 2.89 GiB (9%)
Title : AVO (Kyberpunk)
Language : Russian
Default : Yes
Forced : Yes
Audio #2
ID : 3
Format : DTS XLL
Format/Info : Digital Theater Systems
Commercial name : DTS-HD Master Audio
Codec ID : A_DTS
Duration : 1 h 45 min
Bit rate mode : Variable
Bit rate : 3 847 kb/s
Channel(s) : 6 channels
Channel layout : C L R Ls Rs LFE
Sampling rate : 48.0 kHz
Frame rate : 93.750 FPS (512 SPF)
Bit depth : 24 bits
Compression mode : Lossless
Stream size : 2.83 GiB (9%)
Language : English
Default : No
Forced : No
Text #1
ID : 4
Format : UTF-8
Codec ID : S_TEXT/UTF8
Codec ID/Info : UTF-8 Plain Text
Duration : 1 h 44 min
Bit rate : 151 b/s
Count of elements : 1926
Stream size : 116 KiB (0%)
Title : Full
Language : Russian
Default : No
Forced : No
Text #2
ID : 5
Format : UTF-8
Codec ID : S_TEXT/UTF8
Codec ID/Info : UTF-8 Plain Text
Duration : 1 h 43 min
Bit rate : 94 b/s
Count of elements : 2012
Stream size : 71.2 KiB (0%)
Title : Full
Language : English
Default : No
Forced : No
Menu
00:00:00.000 : en:Chapter 1
00:03:38.677 : en:Chapter 2
00:09:30.653 : en:Chapter 3
00:16:32.658 : en:Chapter 4
00:24:10.324 : en:Chapter 5
00:30:43.633 : en:Chapter 6
00:40:34.015 : en:Chapter 7
00:44:53.941 : en:Chapter 8
00:48:46.715 : en:Chapter 9
00:54:34.021 : en:Chapter 10
00:59:26.730 : en:Chapter 11
01:07:03.227 : en:Chapter 12
01:10:01.906 : en:Chapter 13
01:16:08.480 : en:Chapter 14
01:25:37.215 : en:Chapter 15
01:32:39.345 : en:Chapter 16
Релиз от:
[korsars.info].t26322.torrent 
Торрент: Зарегистрирован [ 2020-02-13 01:00 ] · 68EA41DE27120ED69CD94AD6587DE41D93A61509

Скачать .torrent

Скачать .torrent

39 KB

Статус: проверено
.torrent скачан: 0 раз
Размер: 30,63 GB
Правила
Похожие темы

[Профиль] [ЛС]
Показать сообщения:    
Ответить на тему

Текущее время: 20-Фев 22:06

Часовой пояс: UTC + 4



Вы не можете начинать темы
Вы не можете отвечать на сообщения
Вы не можете редактировать свои сообщения
Вы не можете удалять свои сообщения
Вы не можете голосовать в опросах
Вы не можете прикреплять файлы к сообщениям
Вы можете скачивать файлы
Анализ сайта korsars.info Яндекс.Метрика