Я плюю на ваши могилы 2 / I Spit On Your Grave 2 (2013) BDRip-HEVC 1080p от HEVC-CLUB | Unrated Cut | Лицензия

Ответить на тему
Статистика раздачи [Обновить пиров]
Размер:  6,89 GB   |    Зарегистрирован:  7 месяцев 10 дней   |    .torrent скачан:  0 раз
Раздают:  13  [  0 KB/s  ]   Качают:  6  [  0 KB/s  ]   Подробная статистика пиров
 
   
 
 
Автор Сообщение

4udaki ®

Оффлайн

Медали


Пол: Мужской

Стаж: 5 лет 10 месяцев

Наличие запрета:

Сообщений: 7970

Откуда: korsars.info

Отдача: 2 Mb/s

Загрузка: 20 Mb/s

Нажми


Скачать Adguard бесплатно

Создавать темы 13-Фев-2020 01:00

[Цитировать]

Название: Я плюю на ваши могилы 2
Оригинальное название: I Spit on Your Grave 2
Год выхода: 2013
Страна: США
Студия: Cinetel Films
Жанр: ужасы, триллер, криминал
Продолжительность: 01:46:19
Режиссер: Стивен Р. Монро
В ролях: Джемма Даллендер, Джо Эбсолом, Явор Бахаров, Александр Алексеев, Мэри Стокли, Майкл Диксон, Валентин Пелка, Питер Сильверлиф, Георг Златарев
Описание: Красавица Кэти только что переехала в Нью-Йорк, чтобы сделать карьеру модели. Но девичьи мечты о роскошной жизни разбиваются: ее насилуют, пытают, а вскоре похищают и увозят в непонятном направлении. Кэти оказывается одна в чужой стране, где ее почти что похоронят заживо. Чудом избежав смерти, девушка решает жестоко отомстить обидчикам…
Качество: BDRip-HEVC 1080p
Видео: HEVC/x.265, 1916x800, ~8003 Kbps, 10 bit
Аудио 01: AC3, 6 ch, 640 Kbps - Русский, Професcиональный многоголосый
Аудио 02: AC3, 6 ch, 640 Kbps - Английский, Оригинал
Субтитры: Русские (полные), английские (полные)
Навигация по главам: Есть

Релиз от: [email protected]

Медиаинфо

x265 info: frame I: 1637, Avg QP:15.23 kb/s: 19237.30
x265 info: frame P: 29330, Avg QP:16.58 kb/s: 14482.67
x265 info: frame B: 121981, Avg QP:18.85 kb/s: 6293.46
x265 info: Weighted P-Frames: Y:5.8% UV:4.6%
x265 info: consecutive B-frames: 11.8% 6.1% 10.0% 22.5% 9.1% 18.9% 6.2% 5.6% 2.8% 3.0% 1.8% 2.4%
x265 info: encoded 152948 frames in 86198.66s (1.77 fps), 8002.40 kb/s, Avg QP:18.38
Формат : Matroska
Версия формата : Version 4
Размер файла : 6,89 Гбайт
Продолжительность : 1 ч. 46 м.
Общий поток : 9284 Кбит/сек
Название фильма : I Spit On Your Grave 2 (2013) [email protected]
Дата кодирования : UTC 2020-02-04 05:30:56
Программа кодирования : mkvmerge v43.0.0 ('The Quartermaster') 64-bit
Библиотека кодирования : libebml v1.3.10 + libmatroska v1.5.2
Обложка : Yes
Attachments : cover02.jpg
Видео
Идентификатор : 1
Формат : HEVC
Формат/Информация : High Efficiency Video Coding
Профиль формата : Main [email protected]@High
Идентификатор кодека : V_MPEGH/ISO/HEVC
Продолжительность : 1 ч. 46 м.
Битрейт : 8003 Кбит/сек
Ширина : 1916 пикселей
Высота : 800 пикселей
Соотношение сторон : 2,40:1
Режим частоты кадров : Постоянный
Частота кадров : 23,976 (24000/1001) кадра/сек
Цветовое пространство : YUV
Субдискретизация насыщенности : 4:2:0
Битовая глубина : 10 бит
Бит/(Пиксели*Кадры) : 0.218
Размер потока : 5,94 Гбайт (86%)
Библиотека кодирования : x265 3.2+5-354901970679:[Windows][clang 8.0.1][64 bit] 10bit
Настройки программы : cpuid=1049583 / frame-threads=5 / numa-pools=4 / wpp / no-pmode / no-pme / no-psnr / no-ssim / log-level=3 / input-csp=1 / input-res=1916x800 / interlace=0 / total-frames=0 / level-idc=41 / high-tier=1 / uhd-bd=0 / ref=5 / allow-non-conformance / no-repeat-headers / annexb / no-aud / no-hrd / info / hash=0 / no-temporal-layers / open-gop / min-keyint=24 / keyint=240 / gop-lookahead=0 / bframes=11 / b-adapt=2 / b-pyramid / bframe-bias=0 / rc-lookahead=40 / lookahead-slices=5 / scenecut=40 / radl=0 / no-splice / no-intra-refresh / ctu=32 / min-cu-size=8 / no-rect / no-amp / max-tu-size=32 / tu-inter-depth=4 / tu-intra-depth=4 / limit-tu=1 / rdoq-level=1 / dynamic-rd=0.00 / no-ssim-rd / signhide / no-tskip / nr-intra=0 / nr-inter=0 / no-constrained-intra / no-strong-intra-smoothing / max-merge=5 / limit-refs=1 / no-limit-modes / me=3 / subme=7 / merange=57 / temporal-mvp / no-frame-dup / no-hme / weightp / no-weightb / no-analyze-src-pics / deblock=-3:-3 / no-sao / no-sao-non-deblock / rd=3 / selective-sao=0 / early-skip / no-rskip / no-fast-intra / no-tskip-fast / no-cu-lossless / b-intra / no-splitrd-skip / rdpenalty=0 / psy-rd=2.00 / psy-rdoq=1.00 / no-rd-refine / no-lossless / cbqpoffs=0 / crqpoffs=0 / rc=crf / crf=20.0 / qcomp=0.60 / qpstep=4 / stats-write=0 / stats-read=0 / vbv-maxrate=50000 / vbv-bufsize=50000 / vbv-init=0.9 / crf-max=0.0 / crf-min=0.0 / ipratio=1.40 / pbratio=1.30 / aq-mode=3 / aq-strength=1.00 / no-cutree / zone-count=0 / no-strict-cbr / qg-size=32 / no-rc-grain / qpmax=69 / qpmin=0 / no-const-vbv / sar=1 / overscan=0 / videoformat=5 / range=0 / colorprim=1 / transfer=1 / colormatrix=1 / chromaloc=0 / display-window=0 / cll=0,0 / min-luma=0 / max-luma=1023 / log2-max-poc-lsb=8 / vui-timing-info / vui-hrd-info / slices=1 / no-opt-qp-pps / no-opt-ref-list-length-pps / no-multi-pass-opt-rps / scenecut-bias=0.05 / no-opt-cu-delta-qp / no-aq-motion / no-hdr / no-hdr-opt / no-dhdr10-opt / no-idr-recovery-sei / analysis-reuse-level=5 / scale-factor=0 / refine-intra=0 / refine-inter=0 / refine-mv=1 / refine-ctu-distortion=0 / no-limit-sao / ctu-info=0 / no-lowpass-dct / refine-analysis-type=0 / copy-pic=1 / max-ausize-factor=1.0 / no-dynamic-refine / no-single-sei / no-hevc-aq / no-svt / no-field / qp-adaptation-range=1.00
Язык : English
Default : Да
Forced : Нет
Цветовой диапазон : Limited
Основные цвета : BT.709
Характеристики трансфера : BT.709
Коэффициенты матрицы : BT.709
Аудио #1
Идентификатор : 2
Формат : AC-3
Формат/Информация : Audio Coding 3
Коммерческое название : Dolby Digital
Идентификатор кодека : A_AC3
Продолжительность : 1 ч. 46 м.
Вид битрейта : Постоянный
Битрейт : 640 Кбит/сек
Каналы : 6 каналов
ChannelLayout : L R C LFE Ls Rs
Частота : 48,0 КГц
Частота кадров : 31,250 кадров/сек (1536 SPF)
Битовая глубина : 16 бит
Метод сжатия : С потерями
Размер потока : 487 Мбайт (7%)
Заголовок : MVO (Blu-Ray)
Язык : Russian
Default : Да
Forced : Нет
Аудио #2
Идентификатор : 3
Формат : AC-3
Формат/Информация : Audio Coding 3
Коммерческое название : Dolby Digital
Идентификатор кодека : A_AC3
Продолжительность : 1 ч. 46 м.
Вид битрейта : Постоянный
Битрейт : 640 Кбит/сек
Каналы : 6 каналов
ChannelLayout : L R C LFE Ls Rs
Частота : 48,0 КГц
Частота кадров : 31,250 кадров/сек (1536 SPF)
Битовая глубина : 16 бит
Метод сжатия : С потерями
Размер потока : 486 Мбайт (7%)
Заголовок : Оригинал
Язык : English
Default : Нет
Forced : Нет
Текст #1
Идентификатор : 4
Формат : UTF-8
Идентификатор кодека : S_TEXT/UTF8
Идентификатор кодека/Информация : UTF-8 Plain Text
Продолжительность : 1 ч. 43 м.
Битрейт : 37 бит/сек
ElementCount : 679
Размер потока : 28,8 Кбайт (0%)
Заголовок : Full
Язык : Russian
Default : Нет
Forced : Нет
Текст #2
Идентификатор : 5
Формат : UTF-8
Идентификатор кодека : S_TEXT/UTF8
Идентификатор кодека/Информация : UTF-8 Plain Text
Продолжительность : 1 ч. 40 м.
Битрейт : 24 бит/сек
ElementCount : 827
Размер потока : 18,2 Кбайт (0%)
Заголовок : Full
Язык : English
Default : Нет
Forced : Нет
Меню
00:00:00.000 : :Chapter 01
00:07:30.783 : :Chapter 02
00:15:50.950 : :Chapter 03
00:24:14.911 : :Chapter 04
00:31:26.050 : :Chapter 05
00:40:53.868 : :Chapter 06
00:50:49.171 : :Chapter 07
00:58:22.832 : :Chapter 08
01:05:06.569 : :Chapter 09
01:13:32.741 : :Chapter 10
01:21:17.247 : :Chapter 11
01:29:13.514 : :Chapter 12

Скриншоты

[korsars.info].t26324.torrent 
Торрент: Зарегистрирован [ 2020-02-13 01:00 ] · 7A0FAC1E0994B78F5C74625F93FD43CFB45DC589

Скачать .torrent

Размер .torrent файла 18 KB

Статус: проверено
.torrent скачан: 0 раз
Размер: 6,89 GB
Правила
Похожие темы

[Профиль] [ЛС]
Показать сообщения:    
Ответить на тему

Текущее время: 23-Сен 14:00

Часовой пояс: UTC + 4



Вы не можете начинать темы
Вы не можете отвечать на сообщения
Вы не можете редактировать свои сообщения
Вы не можете удалять свои сообщения
Вы не можете голосовать в опросах
Вы не можете прикреплять файлы к сообщениям
Вы можете скачивать файлы
Анализ сайта korsars.info Яндекс.Метрика