Птаха / Birdy (1984) BDRip 720p от HDReactor | P, P2, A

Ответить на тему
Статистика раздачи [Обновить пиров]
Размер:  7,76 GB   |    Зарегистрирован:  7 месяцев 13 дней   |    .torrent скачан:  0 раз
Раздают:  14  [  0 KB/s  ]   Качают:  3  [  0 KB/s  ]   Подробная статистика пиров
 
   
 
 
Автор Сообщение

4udaki ®

Оффлайн

Медали


Пол: Мужской

Стаж: 5 лет 10 месяцев

Наличие запрета:

Сообщений: 7992

Откуда: korsars.info

Отдача: 2 Mb/s

Загрузка: 20 Mb/s

Нажми


Скачать Adguard бесплатно

Создавать темы 13-Фев-2020 05:00

[Цитировать]

Информация о фильме
Название: Птаха
Оригинальное название: Birdy
Год выхода: 1984
Жанр: Драма, военный
Режиссер: Алан Паркер
В ролях: Мэттью Модайн, Николас Кейдж, Джон Харкинс, Сэнди Бэрон, Карен Янг, Бруно Кёрби, Нэнси Фиш, Джордж Бак, Долорес Сейдж, Пэт Райан
О фильме:
Фильм снят по одноименному роману-бестселлеру Уильяма Уортона о дружбе двух несхожих юношей — ранимого, впечатлительного Птахи и задиристого весельчака Эла. Они противоположности, но есть между ними и общее. Мясорубка Вьетнама сделает их другими людьми.
Эл не сможет уже быть таким беззаботным весельчаком, а Птаха и вовсе уйдет в себя, «двинется» рассудком, возомнив себя птицей. Ради их прежней дружбы, Эл должен достучаться до своего друга, вернуть ему здравый рассудок, вытащить человека из птичьей клетки, в которую тот добровольно заключил себя, прячась от ужасов войны.

Страна: США
Студия: A&M Films, TriStar Pictures
Продолжительность: 02:00:08
Перевод: Профессиональный (многоголосый, двухголосый закадровый), Авторский (одноголосый, закадровый)
Субтитры: Русские, английские
Качество: BDRip 720p
Видео: AVC/H.264, 1280х694, ~6622 Kbps
Аудио 1: AC3, 6 ch, 448 kbps - Русский (DVO, Кармен-Видео)
Аудио 2: AC3, 2 ch, 256 kbps - Русский (MVO, Парамаунт Ченэл)
Аудио 3: AC3, 2 ch, 192 kbps - Русский (MVO, ГТРК "Россия")
Аудио 4: AC3, 2 ch, 192 kbps - Русский (DVO, R5)
Аудио 5: AC3, 2 ch, 320 kbps - Русский (AVO, А. Михалёв)
Аудио 6: AC3, 6 ch, 384 kbps - Русский (AVO, А. Багичев)
Аудио 7: AC3, 2 ch, 192 kbps - Украинский (MVO, ICTV)
Аудио 8: AC3, 2 ch, 192 kbps - Украинский (MVO)
Аудио 9: AC3, 6 ch, 448 kbps - Английский

МедиаИнфо

Полное имя : Z:Birdy.1984.BDRip.720p.HDReactor.mkv
Формат : Matroska
Версия формата : Version 2
Размер файла : 7,76 Гбайт
Продолжительность : 2 ч. 0 м.
Общий поток : 9248 Кбит/сек
Название фильма : ~V ad~
Дата кодирования : UTC 2019-06-30 22:19:03
Программа кодирования : mkvmerge v6.5.0 ('Isn't she lovely') built on Oct 20 2013 12:50:05
Библиотека кодирования : libebml v1.3.0 + libmatroska v1.4.1
Обложка : Yes
Attachments : cover.jpg
Видео
Идентификатор : 1
Формат : AVC
Формат/Информация : Advanced Video Codec
Профиль формата : [email protected]
Настройки формата : CABAC / 9 Ref Frames
Параметр CABAC формата : Да
Параметр RefFrames формата : 9 кадров
Идентификатор кодека : V_MPEG4/ISO/AVC
Продолжительность : 2 ч. 0 м.
Битрейт : 6622 Кбит/сек
Ширина : 1280 пикселей
Высота : 694 пикселя
Соотношение сторон : 1,85:1
Режим частоты кадров : Постоянный
Частота кадров : 23,976 (24000/1001) кадра/сек
Цветовое пространство : YUV
Субдискретизация насыщенности : 4:2:0
Битовая глубина : 8 бит
Тип развёртки : Прогрессивная
Бит/(Пиксели*Кадры) : 0.311
Размер потока : 5,40 Гбайт (70%)
Заголовок : ~V~
Библиотека кодирования : x264 core 157 r2945 72db437
Настройки программы : cabac=1 / ref=9 / deblock=1:-3:-3 / analyse=0x3:0x133 / me=umh / subme=11 / psy=1 / psy_rd=1.00:0.15 / mixed_ref=1 / me_range=32 / chroma_me=1 / trellis=2 / 8x8dct=1 / cqm=0 / deadzone=21,11 / fast_pskip=0 / chroma_qp_offset=-3 / threads=12 / lookahead_threads=1 / sliced_threads=0 / nr=0 / decimate=0 / interlaced=0 / bluray_compat=0 / constrained_intra=0 / bframes=10 / b_pyramid=2 / b_adapt=2 / b_bias=0 / direct=3 / weightb=1 / open_gop=0 / weightp=2 / keyint=240 / keyint_min=23 / scenecut=40 / intra_refresh=0 / rc=2pass / mbtree=0 / bitrate=6622 / ratetol=1.0 / qcomp=0.76 / qpmin=0 / qpmax=69 / qpstep=4 / cplxblur=20.0 / qblur=0.5 / ip_ratio=1.30 / pb_ratio=1.30 / aq=3:0.90
Язык : Английский
Default : Да
Forced : Нет
Аудио #1
Идентификатор : 2
Формат : AC-3
Формат/Информация : Audio Coding 3
Коммерческое название : Dolby Digital
Идентификатор кодека : A_AC3
Продолжительность : 2 ч. 0 м.
Вид битрейта : Постоянный
Битрейт : 448 Кбит/сек
Каналы : 6 каналов
Channel layout : L R C LFE Ls Rs
Частота : 48,0 КГц
Частота кадров : 31,250 кадров/сек (1536 SPF)
Битовая глубина : 16 бит
Метод сжатия : С потерями
Размер потока : 385 Мбайт (5%)
Заголовок : DVO [Karmen-Video]
Язык : Русский
Service Kind : Complete Main
Default : Да
Forced : Нет
Аудио #2
Идентификатор : 3
Формат : AC-3
Формат/Информация : Audio Coding 3
Коммерческое название : Dolby Digital
Идентификатор кодека : A_AC3
Продолжительность : 2 ч. 0 м.
Вид битрейта : Постоянный
Битрейт : 256 Кбит/сек
Каналы : 2 канала
Channel layout : L R
Частота : 48,0 КГц
Частота кадров : 31,250 кадров/сек (1536 SPF)
Битовая глубина : 16 бит
Метод сжатия : С потерями
Размер потока : 220 Мбайт (3%)
Заголовок : MVO [Paramount]
Язык : Русский
Service Kind : Complete Main
Default : Нет
Forced : Нет
Аудио #3
Идентификатор : 4
Формат : AC-3
Формат/Информация : Audio Coding 3
Коммерческое название : Dolby Digital
Идентификатор кодека : A_AC3
Продолжительность : 2 ч. 0 м.
Вид битрейта : Постоянный
Битрейт : 192 Кбит/сек
Каналы : 2 канала
Channel layout : L R
Частота : 48,0 КГц
Частота кадров : 31,250 кадров/сек (1536 SPF)
Битовая глубина : 16 бит
Метод сжатия : С потерями
Размер потока : 165 Мбайт (2%)
Заголовок : MVO [RTR]
Язык : Русский
Service Kind : Complete Main
Default : Нет
Forced : Нет
Аудио #4
Идентификатор : 5
Формат : AC-3
Формат/Информация : Audio Coding 3
Коммерческое название : Dolby Digital
Идентификатор кодека : A_AC3
Продолжительность : 2 ч. 0 м.
Вид битрейта : Постоянный
Битрейт : 192 Кбит/сек
Каналы : 2 канала
Channel layout : L R
Частота : 48,0 КГц
Частота кадров : 31,250 кадров/сек (1536 SPF)
Битовая глубина : 16 бит
Метод сжатия : С потерями
Размер потока : 165 Мбайт (2%)
Заголовок : DVO
Язык : Русский
Service Kind : Complete Main
Default : Нет
Forced : Нет
Аудио #5
Идентификатор : 6
Формат : AC-3
Формат/Информация : Audio Coding 3
Коммерческое название : Dolby Digital
Идентификатор кодека : A_AC3
Продолжительность : 2 ч. 0 м.
Вид битрейта : Постоянный
Битрейт : 320 Кбит/сек
Каналы : 2 канала
Channel layout : L R
Частота : 48,0 КГц
Частота кадров : 31,250 кадров/сек (1536 SPF)
Битовая глубина : 16 бит
Метод сжатия : С потерями
Размер потока : 275 Мбайт (3%)
Заголовок : AVO [Mihalev]
Язык : Русский
Service Kind : Complete Main
Default : Нет
Forced : Нет
Аудио #6
Идентификатор : 7
Формат : AC-3
Формат/Информация : Audio Coding 3
Коммерческое название : Dolby Digital
Идентификатор кодека : A_AC3
Продолжительность : 2 ч. 0 м.
Вид битрейта : Постоянный
Битрейт : 384 Кбит/сек
Каналы : 6 каналов
Channel layout : L R C LFE Ls Rs
Частота : 48,0 КГц
Частота кадров : 31,250 кадров/сек (1536 SPF)
Битовая глубина : 16 бит
Метод сжатия : С потерями
Размер потока : 330 Мбайт (4%)
Заголовок : VO [Bagichev]
Язык : Русский
Service Kind : Complete Main
Default : Нет
Forced : Нет
Аудио #7
Идентификатор : 8
Формат : AC-3
Формат/Информация : Audio Coding 3
Коммерческое название : Dolby Digital
Идентификатор кодека : A_AC3
Продолжительность : 2 ч. 0 м.
Вид битрейта : Постоянный
Битрейт : 192 Кбит/сек
Каналы : 2 канала
Channel layout : L R
Частота : 48,0 КГц
Частота кадров : 31,250 кадров/сек (1536 SPF)
Битовая глубина : 16 бит
Метод сжатия : С потерями
Размер потока : 165 Мбайт (2%)
Заголовок : MVO [ICTV]
Язык : Украинский
Service Kind : Complete Main
Default : Нет
Forced : Нет
Аудио #8
Идентификатор : 9
Формат : AC-3
Формат/Информация : Audio Coding 3
Коммерческое название : Dolby Digital
Идентификатор кодека : A_AC3
Продолжительность : 2 ч. 0 м.
Вид битрейта : Постоянный
Битрейт : 192 Кбит/сек
Каналы : 2 канала
Channel layout : L R
Частота : 48,0 КГц
Частота кадров : 31,250 кадров/сек (1536 SPF)
Битовая глубина : 16 бит
Метод сжатия : С потерями
Размер потока : 165 Мбайт (2%)
Заголовок : MVO
Язык : Украинский
Service Kind : Complete Main
Default : Нет
Forced : Нет
Аудио #9
Идентификатор : 10
Формат : AC-3
Формат/Информация : Audio Coding 3
Коммерческое название : Dolby Digital
Идентификатор кодека : A_AC3
Продолжительность : 2 ч. 0 м.
Вид битрейта : Постоянный
Битрейт : 448 Кбит/сек
Каналы : 6 каналов
Channel layout : L R C LFE Ls Rs
Частота : 48,0 КГц
Частота кадров : 31,250 кадров/сек (1536 SPF)
Битовая глубина : 16 бит
Метод сжатия : С потерями
Размер потока : 385 Мбайт (5%)
Язык : Английский
Service Kind : Complete Main
Default : Нет
Forced : Нет
Текст #1
Идентификатор : 11
Формат : UTF-8
Идентификатор кодека : S_TEXT/UTF8
Идентификатор кодека/Информация : UTF-8 Plain Text
Заголовок : 1
Язык : Русский
Default : Нет
Forced : Нет
Текст #2
Идентификатор : 12
Формат : UTF-8
Идентификатор кодека : S_TEXT/UTF8
Идентификатор кодека/Информация : UTF-8 Plain Text
Заголовок : 2
Язык : Русский
Default : Нет
Forced : Нет
Текст #3
Идентификатор : 13
Формат : UTF-8
Идентификатор кодека : S_TEXT/UTF8
Идентификатор кодека/Информация : UTF-8 Plain Text
Язык : Английский
Default : Нет
Forced : Нет
Меню
00:00:00.000 : en:Chapter 01
00:10:00.558 : en:Chapter 02
00:20:01.575 : en:Chapter 03
00:30:02.091 : en:Chapter 04
00:39:45.216 : en:Chapter 05
00:50:02.791 : en:Chapter 06
01:00:03.474 : en:Chapter 07
01:10:04.074 : en:Chapter 08
01:20:04.424 : en:Chapter 09
01:30:05.191 : en:Chapter 10
01:40:06.375 : en:Chapter 11
01:50:06.683 : en:Chapter 12

Скриншоты

Сэмпл
Релиз от:
[korsars.info].t26328.torrent 
Торрент: Зарегистрирован [ 2020-02-13 05:00 ] · 1FA173A2940E4C27682CA2A6F9712B2B788BBB27

Скачать .torrent

Размер .torrent файла 21 KB

Статус: проверено
.torrent скачан: 0 раз
Размер: 7,76 GB
Правила

[Профиль] [ЛС]
Показать сообщения:    
Ответить на тему

Текущее время: 26-Сен 07:15

Часовой пояс: UTC + 4



Вы не можете начинать темы
Вы не можете отвечать на сообщения
Вы не можете редактировать свои сообщения
Вы не можете удалять свои сообщения
Вы не можете голосовать в опросах
Вы не можете прикреплять файлы к сообщениям
Вы можете скачивать файлы
Анализ сайта korsars.info Яндекс.Метрика