Победитель / Overcomer (2019) WEB-DLRip-AVC от OlLanDGroup | iTunes

Ответить на тему
Статистика раздачи [Обновить пиров]
Размер:  1,79 GB   |    Зарегистрирован:  7 месяцев 12 дней   |    .torrent скачан:  0 раз
Раздают:  5  [  0 KB/s  ]   Качают:  3  [  0 KB/s  ]   Подробная статистика пиров
 
   
 
 
Автор Сообщение

4udaki ®

Оффлайн

Медали


Пол: Мужской

Стаж: 5 лет 10 месяцев

Наличие запрета:

Сообщений: 7992

Откуда: korsars.info

Отдача: 2 Mb/s

Загрузка: 20 Mb/s

Нажми


Скачать Adguard бесплатно

Создавать темы 13-Фев-2020 09:00

[Цитировать]

Победитель / Overcomer
«From the creators of WAR ROOM»-

Год выпуска: 2019
Страна: США
Производство: Affirm Films, Provident Films
Жанр: Драма, спорт
Режиссёр: Алекс Кендрик
В ролях: Алекс Кендрик, Шари Вьедманн, Арин Райт-Томпсон, Камерон Арнетт, Присцилла Эванс Ширер, Бен Дейвис, Элизабет Бечка, Дениз Армстронг, Джек Стернер, Холли Моррис
Перевод: Профессиональный многоголосый | [iTunes]
Субтитры: Русские (полные)
Реклама: Отсутствует
Описание: Жизнь тренера Джона Харрисона резко меняется, когда его школьная баскетбольная команда и мечты о чемпионате штата неожиданно накрываются медным тазом. Самый большой завод города внезапно закрывается, сотни семей выезжают, и Джон должен преодолеть проблемы своей семьи и команды. Директор школы просит Джона заменить тренера в спорте, который он не знает и не любит, Джон расстроен и сомневается, что чего-то стоит... но вдруг он знакомится с ученицей, которая тоже пытается решить свои проблемы. Этот вдохновляющий фильм для семейного просмотра наполняет надеждой, вдохновляет мечты и задает вопрос: каким обстоятельствам вы позволяете влиять на вашу жизнь?

Качество: BDRip-AVC | BDRemux | Overcomer.2019.BDREMUX.1080p.seleZen
Продолжительность: 01:59:06
Формат: MKV
Видео кодек: MPEG-4 AVC
Аудио кодек: AC3
Видео: 1024x428 (2.40:1), 23,976 fps, x264 ~1 765 kbps avg, 0.168 bit/pixel
Аудио: 48 kHz, AC3 Dolby Digital, 3/2 (L,C,R,l,r) + LFE ch, ~384.00 kbps avg | RUS (iTunes)
Дата премьеры (мир): 22 августа 2019
Дата премьеры (РФ):
Цифровой релиз:

Релиз от:

MediaInfo

Общее
Уникальный идентификатор : 322361112363219515345748054053368388561 (0xF2847DEE82AB4D2ABA6F1BB9E0745BD1)
Полное имя : F:OlLanDGroupOvercomer.2019.BDRip(AVC).OlLanDGroup.mkv
Формат : Matroska
Версия формата : Version 4 / Version 2
Размер файла : 1,79 Гбайт
Продолжительность : 1 ч. 59 м.
Общий поток : 2151 Кбит/сек
Название фильма : Overcomer 2019 #TorpedoUK#
Дата кодирования : UTC 2019-12-13 12:40:16
Программа кодирования : mkvmerge v29.0.0 ('Like It Or Not') 64-bit
Библиотека кодирования : libebml v1.3.6 + libmatroska v1.4.9
Видео
Идентификатор : 1
Формат : AVC
Формат/Информация : Advanced Video Codec
Профиль формата : [email protected]
Параметр CABAC формата : Да
Параметр ReFrames формата : 10 кадров
Идентификатор кодека : V_MPEG4/ISO/AVC
Продолжительность : 1 ч. 59 м.
Битрейт : 1765 Кбит/сек
Ширина : 1024 пикселя
Высота : 428 пикселей
Соотношение сторон : 2,40:1
Режим частоты кадров : Постоянный
Частота кадров : 23,976 (24000/1001) кадра/сек
Цветовое пространство : YUV
Субдискретизация насыщенности : 4:2:0
Битовая глубина : 8 бит
Тип развёртки : Прогрессивная
Бит/(Пиксели*Кадры) : 0.168
Размер потока : 1,47 Гбайт (82%)
Библиотека кодирования : x264 core 146 r2538 121396c
Настройки программы : cabac=1 / ref=10 / deblock=1:-3:-3 / analyse=0x3:0x113 / me=umh / subme=11 / psy=1 / psy_rd=1.00:0.03 / mixed_ref=1 / me_range=48 / chroma_me=1 / trellis=2 / 8x8dct=1 / cqm=0 / deadzone=21,11 / fast_pskip=1 / chroma_qp_offset=-6 / threads=6 / lookahead_threads=1 / sliced_threads=0 / nr=0 / decimate=1 / interlaced=0 / bluray_compat=0 / constrained_intra=0 / bframes=11 / b_pyramid=2 / b_adapt=2 / b_bias=0 / direct=3 / weightb=1 / open_gop=0 / weightp=2 / keyint=240 / keyint_min=23 / scenecut=40 / intra_refresh=0 / rc_lookahead=40 / rc=2pass / mbtree=0 / bitrate=1765 / ratetol=1.0 / qcomp=0.60 / qpmin=0 / qpmax=69 / qpstep=4 / cplxblur=20.0 / qblur=0.5 / vbv_maxrate=50000 / vbv_bufsize=62500 / nal_hrd=none / filler=0 / ip_ratio=1.40 / pb_ratio=1.30 / aq=1:1.00
Язык : English
Default : Да
Forced : Нет
Аудио
Идентификатор : 2
Формат : AC-3
Формат/Информация : Audio Coding 3
Расширение режима : CM (complete main)
Параметр Endianness формата : Big
Идентификатор кодека : A_AC3
Продолжительность : 1 ч. 59 м.
Вид битрейта : Постоянный
Битрейт : 384 Кбит/сек
Каналы : 6 каналов
Расположение каналов : Front: L C R, Side: L R, LFE
Частота : 48,0 КГц
Частота кадров : 31,250 кадров/сек (1536 spf)
Битовая глубина : 16 бит
Метод сжатия : С потерями
Размер потока : 327 Мбайт (18%)
Заголовок : MVO [iTunes]
Язык : Russian
Default : Да
Forced : Нет
Текст
Идентификатор : 3
Формат : UTF-8
Идентификатор кодека : S_TEXT/UTF8
Идентификатор кодека/Информация : UTF-8 Plain Text
Продолжительность : 1 ч. 58 м.
Битрейт : 84 бит/сек
Count of elements : 1606
Размер потока : 73,1 Кбайт (0%)
Заголовок : Full
Язык : Russian
Default : Нет
Forced : Нет
Меню
00:00:00.000 : en:Глава 01
00:05:08.850 : en:Глава 02
00:13:25.263 : en:Глава 03
00:18:09.630 : en:Глава 04
00:26:10.152 : en:Глава 05
00:32:40.667 : en:Глава 06
00:40:05.320 : en:Глава 07
00:46:09.600 : en:Глава 08
00:52:48.415 : en:Глава 09
00:59:34.988 : en:Глава 10
01:08:04.080 : en:Глава 11
01:14:54.949 : en:Глава 12
01:23:59.326 : en:Глава 13
01:33:09.334 : en:Глава 14
01:44:13.747 : en:Глава 15
01:51:16.169 : en:Глава 16

Скриншоты

[korsars.info].t26333.torrent 
Торрент: Зарегистрирован [ 2020-02-13 09:00 ] · 4BEEF95326341D146F2367D3F4F412E0446268EB

Скачать .torrent

Размер .torrent файла 19 KB

Статус: проверено
.torrent скачан: 0 раз
Размер: 1,79 GB
Правила
Похожие темы

[Профиль] [ЛС]
Показать сообщения:    
Ответить на тему

Текущее время: 26-Сен 06:10

Часовой пояс: UTC + 4



Вы не можете начинать темы
Вы не можете отвечать на сообщения
Вы не можете редактировать свои сообщения
Вы не можете удалять свои сообщения
Вы не можете голосовать в опросах
Вы не можете прикреплять файлы к сообщениям
Вы можете скачивать файлы
Анализ сайта korsars.info Яндекс.Метрика