Паршивая овца / Black Sheep (2006) HDRip-AVC | D

Ответить на тему
Статистика раздачи [Обновить пиров]
Размер:  745 MB   |    Зарегистрирован:  6 дней   |    .torrent скачан:  1 раз
Раздают:  12  [  0 KB/s  ]   Качают:  2  [  0 KB/s  ]   Подробная статистика пиров
 
   
 
 
Автор Сообщение

4udaki ®

Оффлайн



Пол: Мужской

Стаж: 5 лет 3 месяца

Наличие запрета:

Сообщений: 5869

Откуда: korsars.info

Отдача: 2 Mb/s

Загрузка: 20 Mb/s

Нажми

Создавать темы 13-Фев-2020 13:00

[Цитировать]

Информация о фильме
Название: Паршивая овца
Оригинальное название: Black Sheep
Год выхода: 2006
Жанр: ужасы, фантастика, комедия
Режиссер: Джонатан Кинг
В ролях: Натан Майстер, Питер Вини, Даниэль Мэйсон, Тэмми Дэвис, Оливер Драйвер, Тэнди Райт, Гленис Левестам, Ник Блейк, Мэттью Чемберлен, Ник Фентон
О фильме:
Генри Олдфилд, панически боящийся овец и проходящий курс лечения, возвращается на ферму своего отца, чтобы продать дело своему старшему брату Ангусу. Он не знает, что на ферме происходит нечто оооочень страшное: Ангус безрассудно запустил программу генной инженерии.
Когда два ярых поборника защиты окружающей среды — не ведая что творят — выпускают мутанта-ягненка из лаборатории Ангуса на ферму, тысячи овец превращаются в кровожадных хищников. Вместе с помощником на ферме Такером и новоприбывшей девушкой Экспириенс Генри оказывается в самом сердце фермы как раз в то время, когда его самый страшный ночной кошмар становится явью.
Пробивая себе путь к безопасному месту, отважная троица обнаруживает, что худшее впереди: оказывается, что один укус инфицированной овцы странным и тревожным образом влияет на укушенных…

Страна: Новая Зеландия
Продолжительность: 01:26:26
Перевод: Профессиональный (дублированный)
Файл
Кодек: H.264
Качество: HDRip-AVC
Видео: 752x318, 24.000 fps, 1 132 kb/s
Звук: AAC-HE, 2ch, 72kbps
Субтитры: Русские, английские

MI

Video
ID : 1
Format : AVC
Format/Info : Advanced Video Codec
Format profile : [email protected]
Format settings : CABAC / 12 Ref Frames
Format settings, CABAC : Yes
Format settings, Reference : 12 frames
Codec ID : V_MPEG4/ISO/AVC
Duration : 1 h 26 min
Bit rate : 1 132 kb/s
Width : 752 pixels
Height : 318 pixels
Display aspect ratio : 2.35:1
Frame rate mode : Constant
Frame rate : 24.000 FPS
Color space : YUV
Chroma subsampling : 4:2:0
Bit depth : 8 bits
Scan type : Progressive
Bits/(Pixel*Frame) : 0.197
Stream size : 700 MiB (94%)
Title : Rip by donadar
Writing library : x264 core 152 r2851 ba24899
Encoding settings : cabac=1 / ref=12 / deblock=1:-1:-1 / analyse=0x3:0x133 / me=umh / subme=10 / psy=1 / psy_rd=1.00:0.12 / mixed_ref=1 / me_range=32 / chroma_me=1 / trellis=2 / 8x8dct=1 / cqm=0 / deadzone=21,11 / fast_pskip=0 / chroma_qp_offset=-3 / threads=6 / lookahead_threads=1 / sliced_threads=0 / nr=0 / decimate=0 / interlaced=0 / bluray_compat=0 / constrained_intra=0 / bframes=10 / b_pyramid=2 / b_adapt=2 / b_bias=0 / direct=3 / weightb=1 / open_gop=0 / weightp=2 / keyint=250 / keyint_min=24 / scenecut=40 / intra_refresh=0 / rc_lookahead=40 / rc=2pass / mbtree=1 / bitrate=1132 / ratetol=1.0 / qcomp=0.60 / qpmin=0 / qpmax=69 / qpstep=4 / cplxblur=20.0 / qblur=0.5 / ip_ratio=1.40 / aq=2:1.00
Language : English
Default : Yes
Forced : No
Audio
ID : 2
Format : AAC LC SBR
Format/Info : Advanced Audio Codec Low Complexity with Spectral Band Replication
Commercial name : HE-AAC
Format settings : Explicit
Codec ID : A_AAC-2
Duration : 1 h 26 min
Bit rate : 72.0 kb/s
Channel(s) : 2 channels
Channel layout : L R
Sampling rate : 48.0 kHz
Frame rate : 23.438 FPS (2048 SPF)
Compression mode : Lossy
Delay relative to video : 31 ms
Stream size : 44.5 MiB (6%)
Language : Russian
Default : Yes
Forced : No
Text #1
ID : 3
Format : UTF-8
Codec ID : S_TEXT/UTF8
Codec ID/Info : UTF-8 Plain Text
Duration : 1 h 23 min
Bit rate : 59 b/s
Count of elements : 710
Stream size : 36.6 KiB (0%)
Title : Rus full
Language : Russian
Default : Yes
Forced : No
Text #2
ID : 4
Format : UTF-8
Codec ID : S_TEXT/UTF8
Codec ID/Info : UTF-8 Plain Text
Duration : 1 h 22 min
Bit rate : 36 b/s
Count of elements : 849
Stream size : 22.0 KiB (0%)
Title : Eng full
Language : English
Default : No
Forced : No
Menu
00:00:00.000 : en:Farm Life
00:04:59.292 : en:Oldfield
00:11:37.125 : en:Bio-Hazard
00:15:09.625 : en:Once-Bitten
00:21:55.583 : en:Ovinophobia
00:26:17.792 : en:Getting Grounded
00:31:47.833 : en:Frankensheep
00:36:53.542 : en:Revolting Sheep
00:42:07.417 : en:In the Pit
00:49:36.458 : en:Mutation
00:56:59.000 : en:The Calling
01:02:45.000 : en:Animal Husbandry
01:08:34.333 : en:I am a Sheep
01:13:11.500 : en:The Showdown
01:18:41.833 : en:Drenched
01:23:52.208 : en:End Credits

Скриншоты

Релиз от: donadar
[korsars.info].t26335.torrent 
Торрент: Зарегистрирован [ 2020-02-13 13:00 ] · CF924C085B9091CD46A803FA985C281CD066FD31

Скачать .torrent

Скачать .torrent

15 KB

Статус: проверено
.torrent скачан: 1 раз
Размер: 745 MB
Правила
shura(14-Фев-20)
Похожие темы

[Профиль] [ЛС]
Показать сообщения:    
Ответить на тему

Текущее время: 19-Фев 15:52

Часовой пояс: UTC + 4



Вы не можете начинать темы
Вы не можете отвечать на сообщения
Вы не можете редактировать свои сообщения
Вы не можете удалять свои сообщения
Вы не можете голосовать в опросах
Вы не можете прикреплять файлы к сообщениям
Вы можете скачивать файлы
Анализ сайта korsars.info Яндекс.Метрика