Новички / The Rookies (2019) WEBRip-AVC от Batafurai Team | L1

Ответить на тему
Статистика раздачи [Обновить пиров]
Размер:  2,06 GB   |    Зарегистрирован:  7 месяцев 12 дней   |    .torrent скачан:  1 раз
Раздают:  52  [  0 KB/s  ]   Качают:  6  [  0 KB/s  ]   Подробная статистика пиров
 
   
 
 
Автор Сообщение

4udaki ®

Оффлайн

Медали


Пол: Мужской

Стаж: 5 лет 10 месяцев

Наличие запрета:

Сообщений: 7992

Откуда: korsars.info

Отдача: 2 Mb/s

Загрузка: 20 Mb/s

Нажми


Скачать Adguard бесплатно

Создавать темы 13-Фев-2020 17:00

[Цитировать]

Новички / The Rookies / 素人特工
Страна: Китай
Жанр: комедия, боевик, криминал
Год выпуска: 2019
Продолжительность: 01:52:53
Перевод: любительский одноголосый закадровый
Субтитры: русские, китайский/английский хардсаб
Оригинальная аудиодорожка: Китайский-Английский
Режиссер: Алан Юэнь / Alan Yuen
В ролях: Мила Йовович, Сяо Чжань, Сандрин Пинна, Лу Но, Сюй Вэй Чжоу, Лю Мэй Тун, Дэвид МакИннис, Лу Но, Дэнни Чан, Кэти Чоу, Лам Сует, Даррен Ван и т.д.
Описание: Чжао Фэн (Даррен Ван) - любитель экстремальных видов спорта. Однажды он становится свидетелем незаконной сделки с участием международного преступного синдиката. Против своей воли он вынужден сопровождать агента Интерпола (Мила Йовович) в Будапешт. Там они собирают команду новичков, которой предстоит противостоять международной террористической организацией.
Релиз группы:
Доп. информация:
Перевод: Irkins Evil
Озвучивание Ворон
Смотреть обязательно с форсированными субтитрами
Прежде чем качать видео и комментировать, скачайте сэмпл и послушайте!

Качество видео: WEBRip-AVC - Сэмпл
Исходник: The.Rookies.2019.HD1080P.X264.AAC.Mandarin.CHS-ENG.Mp4Ba
Формат видео: MKV
Видео: 800x336 (2,40:1), 24,000 fps, x264 ~2159 kbps avg, 0.335 bit/pixel
Аудио: 48 kHz, AC3 Dolby Digital, 2/0 (L,R) ch, ~224 kbps (Русский)
Аудио 2: 48 kHz, AC3 Dolby Digital, 2/0 (L,R) ch, ~224 kbps (Китайский)
Формат субтитров: форсированный(надписи) (ass)

Скриншоты

отчет MediaInfo

Формат : Matroska
Версия формата : Version 4
Размер файла : 2,06 Гбайт
Продолжительность : 1 ч. 52 м.
Общий поток : 2609 Кбит/сек
Дата кодирования : UTC 2020-01-23 17:57:43
Программа кодирования : mkvmerge v8.2.0 ('World of Adventure') 32bit
Библиотека кодирования : libebml v1.3.1 + libmatroska v1.4.2
Attachments : AA-BebasNeue.ttf / Arial Black (regular).ttf
Видео
Идентификатор : 1
Формат : AVC
Формат/Информация : Advanced Video Codec
Профиль формата : [email protected]
Настройки формата : CABAC / 10 Ref Frames
Параметр CABAC формата : Да
Параметр RefFrames формата : 10 кадров
Идентификатор кодека : V_MPEG4/ISO/AVC
Продолжительность : 1 ч. 52 м.
Битрейт : 2159 Кбит/сек
Ширина : 800 пикселей
Высота : 336 пикселей
Соотношение сторон : 2,40:1
Режим частоты кадров : Постоянный
Частота кадров : 24,000 кадра/сек
Цветовое пространство : YUV
Субдискретизация насыщенности : 4:2:0
Битовая глубина : 8 бит
Тип развёртки : Прогрессивная
Бит/(Пиксели*Кадры) : 0.335
Размер потока : 1,70 Гбайт (83%)
Библиотека кодирования : x264 core 148 r2638 7599210
Настройки программы : cabac=1 / ref=10 / deblock=1:-2:-1 / analyse=0x3:0x133 / me=umh / subme=10 / psy=1 / psy_rd=1.00:0.00 / mixed_ref=1 / me_range=24 / chroma_me=1 / trellis=2 / 8x8dct=1 / cqm=0 / deadzone=21,11 / fast_pskip=0 / chroma_qp_offset=-2 / threads=10 / lookahead_threads=2 / sliced_threads=0 / nr=0 / decimate=0 / interlaced=0 / bluray_compat=0 / constrained_intra=0 / bframes=10 / b_pyramid=2 / b_adapt=2 / b_bias=0 / direct=3 / weightb=1 / open_gop=1 / weightp=2 / keyint=240 / keyint_min=24 / scenecut=40 / intra_refresh=0 / rc_lookahead=60 / rc=2pass / mbtree=0 / bitrate=2159 / ratetol=1.0 / qcomp=0.70 / qpmin=10 / qpmax=51 / qpstep=4 / cplxblur=20.0 / qblur=0.5 / vbv_maxrate=62500 / vbv_bufsize=78125 / nal_hrd=none / filler=0 / ip_ratio=1.40 / pb_ratio=1.30 / aq=1:1.00
Язык : English
Default : Да
Forced : Нет
Цветовой диапазон : Limited
Коэффициенты матрицы : BT.709
Аудио #1
Идентификатор : 2
Формат : AC-3
Формат/Информация : Audio Coding 3
Коммерческое название : Dolby Digital
Идентификатор кодека : A_AC3
Продолжительность : 1 ч. 52 м.
Вид битрейта : Постоянный
Битрейт : 224 Кбит/сек
Каналы : 2 канала
ChannelLayout : L R
Частота : 48,0 КГц
Частота кадров : 31,250 кадров/сек (1536 SPF)
Метод сжатия : С потерями
Размер потока : 181 Мбайт (9%)
Заголовок : Ворон
Язык : Russian
Default : Да
Forced : Нет
Аудио #2
Идентификатор : 3
Формат : AC-3
Формат/Информация : Audio Coding 3
Коммерческое название : Dolby Digital
Идентификатор кодека : A_AC3
Продолжительность : 1 ч. 52 м.
Вид битрейта : Постоянный
Битрейт : 224 Кбит/сек
Каналы : 2 канала
ChannelLayout : L R
Частота : 48,0 КГц
Частота кадров : 31,250 кадров/сек (1536 SPF)
Метод сжатия : С потерями
Размер потока : 181 Мбайт (9%)
Заголовок : Original
Язык : Chinese
Default : Нет
Forced : Нет
Текст
Идентификатор : 4
Формат : ASS
Идентификатор кодека : S_TEXT/ASS
Идентификатор кодека/Информация : Advanced Sub Station Alpha
Продолжительность : 1 ч. 41 м.
Битрейт : 3 бит/сек
ElementCount : 32
Метод сжатия : Без потерь
Размер потока : 2,90 Кбайт (0%)
Default : Да
Forced : Нет
[korsars.info].t26341.torrent 
Торрент: Зарегистрирован [ 2020-02-13 17:00 ] · 8B66F4C12775F284B78A1C0B908A0B4D37351854

Скачать .torrent

Размер .torrent файла 11 KB

Статус: проверено
.torrent скачан: 1 раз
Размер: 2,06 GB
Правила
shura(14-Фев-20)

[Профиль] [ЛС]
Показать сообщения:    
Ответить на тему

Текущее время: 26-Сен 06:49

Часовой пояс: UTC + 4



Вы не можете начинать темы
Вы не можете отвечать на сообщения
Вы не можете редактировать свои сообщения
Вы не можете удалять свои сообщения
Вы не можете голосовать в опросах
Вы не можете прикреплять файлы к сообщениям
Вы можете скачивать файлы
Анализ сайта korsars.info Яндекс.Метрика