Ночь в осаде / Trauma Center (2019) WEB-DLRip-AVC от ExKinoRay | Расширенная версия | iTunes

Ответить на тему
Статистика раздачи [Обновить пиров]
Размер:  1,45 GB   |    Зарегистрирован:  7 месяцев 12 дней   |    .torrent скачан:  2 раза
Раздают:  51  [  0 KB/s  ]   Качают:  4  [  0 KB/s  ]   Подробная статистика пиров
 
   
 
 
Автор Сообщение

4udaki ®

Оффлайн

Медали


Пол: Мужской

Стаж: 5 лет 10 месяцев

Наличие запрета:

Сообщений: 7969

Откуда: korsars.info

Отдача: 2 Mb/s

Загрузка: 20 Mb/s

Нажми


Скачать Adguard бесплатно

Создавать темы 13-Фев-2020 17:00

[Цитировать]

Название: Ночь в осаде
Оригинальное название: Trauma Center
Год выхода: 2019
Жанр: Боевик, триллер
Режиссер: Мэтт Эскандари
В ролях: Брюс Уиллис, Никки Уилан, Стив Гуттенберг, Лорин Кент, Хезер Йохансен, Линн Гилмартин, Тексас Бэттл, Тито Ортис, Катрин Дэвис, Тайлер Джон Олсон
Описание: Избитая неизвестными испуганная женщина оказывается ночью одна в больничном изоляторе травматологического центра. Она раненая и обессилена, и теперь ей придётся найти в себе силы сбежать от двух киллеров, которые пришли за важной уликой, указывающей на их причастие к громким криминальным делам. К счастью, ветеран полиции получает задание защищать женщину.

Страна: США
Студия: BondIt, Buffalo 8 Productions, Emmett/Furla Films, Pimienta
Продолжительность: 01:38:00
Перевод: Профессиональный (полное дублирование) | iTunes
• Расширенная версия длиннее театральной на ~11 минут. Полный дублированный перевод.
Формат: MKV
Качество: WEB-DLRip-AVC
Видео: AVC/H.264, 720x302, ~1729 Кbps, 24.000 fps, 0.331 bit/pixel
Аудио: 48 kHz, AC3, 5.1, 384 Kbps | iTunes | RUS |
Субтитры: Русские

ОтчетМедиаИнфо

General
Unique ID : 213593133060460145708506322597415303294 (0xA0B08A84B897C5238CC0A61735E1387E)
Complete name : F:Trauma.Center.2019.AVC.ExKinoRay.mkv
Format : Matroska
Format version : Version 2
File size : 1.45 GiB
Duration : 1 h 38 min
Overall bit rate : 2 112 kb/s
Movie name : Trauma Center (2019) from ExKinoRay
Encoded date : UTC 2020-01-11 00:28:41
Writing application : mkvmerge v5.6.0 ('Kenya Kane') built on May 27 2012 16:44:04
Writing library : libebml v1.2.3 + libmatroska v1.3.0
Video
ID : 1
Format : AVC
Format/Info : Advanced Video Codec
Format profile : [email protected]
Format settings, CABAC : Yes
Format settings, ReFrames : 11 frames
Codec ID : V_MPEG4/ISO/AVC
Duration : 1 h 38 min
Bit rate : 1 729 kb/s
Width : 720 pixels
Height : 302 pixels
Display aspect ratio : 2.40:1
Frame rate mode : Constant
Frame rate : 24.000 FPS
Color space : YUV
Chroma subsampling : 4:2:0
Bit depth : 8 bits
Scan type : Progressive
Bits/(Pixel*Frame) : 0.331
Stream size : 1.15 GiB (80%)
Title : Enigma
Writing library : x264 core 152 r2851 ba24899
Encoding settings : cabac=1 / ref=11 / deblock=1:-2:-2 / analyse=0x3:0x113 / me=umh / subme=10 / psy=1 / psy_rd=1.05:0.10 / mixed_ref=1 / me_range=32 / chroma_me=1 / trellis=2 / 8x8dct=1 / cqm=0 / deadzone=21,11 / fast_pskip=0 / chroma_qp_offset=-3 / threads=9 / lookahead_threads=1 / sliced_threads=0 / nr=0 / decimate=0 / interlaced=0 / bluray_compat=0 / constrained_intra=0 / bframes=9 / b_pyramid=2 / b_adapt=2 / b_bias=0 / direct=3 / weightb=1 / open_gop=0 / weightp=2 / keyint=240 / keyint_min=24 / scenecut=40 / intra_refresh=0 / rc=2pass / mbtree=0 / bitrate=1729 / ratetol=1.0 / qcomp=0.60 / qpmin=0 / qpmax=51 / qpstep=4 / cplxblur=20.0 / qblur=0.5 / ip_ratio=1.40 / pb_ratio=1.30 / aq=1:1.00
Default : Yes
Forced : No
Color range : Limited
Color primaries : BT.709
Transfer characteristics : BT.709
Matrix coefficients : BT.709
Audio
ID : 2
Format : AC-3
Format/Info : Audio Coding 3
Mode extension : CM (complete main)
Format settings, Endianness : Big
Codec ID : A_AC3
Duration : 1 h 38 min
Bit rate mode : Constant
Bit rate : 384 kb/s
Channel(s) : 6 channels
Channel positions : Front: L C R, Side: L R, LFE
Sampling rate : 48.0 kHz
Frame rate : 31.250 FPS (1536 spf)
Compression mode : Lossy
Stream size : 269 MiB (18%)
Title : iTunes
Language : Russian
Default : Yes
Forced : No
Text
ID : 3
Format : UTF-8
Codec ID : S_TEXT/UTF8
Codec ID/Info : UTF-8 Plain Text
Title : Full
Language : Russian
Default : No
Forced : No
Menu
00:00:00.000 : en:Глава 1
00:02:50.333 : en:Глава 2
00:07:52.124 : en:Глава 3
00:14:23.374 : en:Глава 4
00:18:44.249 : en:Глава 5
00:24:05.290 : en:Глава 6
00:29:59.081 : en:Глава 7
00:39:46.872 : en:Глава 8
00:48:42.705 : en:Глава 9
00:57:17.871 : en:Глава 10
01:05:15.912 : en:Глава 11
01:15:35.453 : en:Глава 12
01:22:00.411 : en:Глава 13
01:27:53.911 : en:Глава 14

Скриншоты

Релиз от:
[korsars.info].t26342.torrent 
Торрент: Зарегистрирован [ 2020-02-13 17:00 ] · 5E40A055E13FA04BD69B26DF5C452465201086E3

Скачать .torrent

Размер .torrent файла 15 KB

Статус: проверено
.torrent скачан: 2 раз
Размер: 1,45 GB
Правила
Похожие темы

[Профиль] [ЛС]
Показать сообщения:    
Ответить на тему

Текущее время: 26-Сен 05:37

Часовой пояс: UTC + 4



Вы не можете начинать темы
Вы не можете отвечать на сообщения
Вы не можете редактировать свои сообщения
Вы не можете удалять свои сообщения
Вы не можете голосовать в опросах
Вы не можете прикреплять файлы к сообщениям
Вы можете скачивать файлы
Анализ сайта korsars.info Яндекс.Метрика