Искусство самообороны / The Art of Self-Defense (2019) BDRip 1080p от селезень | iTunes

Ответить на тему
Статистика раздачи [Обновить пиров]
Размер:  14,13 GB   |    Зарегистрирован:  7 месяцев 12 дней   |    .torrent скачан:  3 раза
Раздают:  189  [  0 KB/s  ]   Качают:  7  [  0 KB/s  ]   Подробная статистика пиров
 
   
 
 
Автор Сообщение

4udaki ®

Оффлайн

Медали


Пол: Мужской

Стаж: 5 лет 10 месяцев

Наличие запрета:

Сообщений: 7969

Откуда: korsars.info

Отдача: 2 Mb/s

Загрузка: 20 Mb/s

Нажми


Скачать Adguard бесплатно

Создавать темы 14-Фев-2020 05:00

[Цитировать]

Информация о фильме
Название: Искусство самообороны
Оригинальное название: The Art of Self-Defense
Год выхода: 2019
Жанр: Комедия, драма, спорт
Режиссер: Райли Стернс
В ролях: Джесси Айзенберг, Алессандро Нивола, Имоджен Путс, Стив Терада, Филлип Андре Ботельо, Каролин Амиге, Аполло Бакала, Хауке Бахр, Джейсон Бёрки, Джастин Итон

О фильме: Стеснительный 34-летний бухгалтер с женственным именем Кэйси Дэвис как-то ночью отправляется за собачьим кормом. По дороге на него совершают нападение неизвестные на мотоциклах и сильно избивают, да так, что парень несколько дней вынужден пролежать в больнице. Встав на ноги, Кэйси отправляется покупать пистолет, и пока бумаги на огнестрельное оружие проходят одобрение, решает записаться в секцию карате. Там нерешительного парня радушно привечает брутальный сэнсэй, а новый товарищ обещает, что спорт изменит его жизнь.
Страна: США
Студия: End Cue
Продолжительность: 01:44:19
Перевод: Дублированный | iTunes
Качество: BDRip 1080p
Видео: MPEG-4 AVC, 1920x1040, 18.4 Mbit/s, 23.976 fps
Аудио #01: 48 kHz, AC3, 5.1, 384 Kbps | iTunes | RUS |
Аудио #02: 48 kHz, AC3, 5.1, 640 Kbps | Оригинал | ENG |
Субтитры: Русские (Forced, full), английские

Скриншоты

MI

General
Unique ID : 94812446091707741748695623702714909147 (0x47543680CD4DB97C7D06605A89FA01DB)
Complete name : F:Video111The.Art.of.Self.Defense.2019.BDRip.1080p.seleZen.mkv
Format : Matroska
Format version : Version 4
File size : 14.1 GiB
Duration : 1 h 44 min
Overall bit rate : 19.4 Mb/s
Movie name : The Art of Self Defense 2019 from селезень
Encoded date : UTC 2019-12-07 16:31:41
Writing application : mkvmerge v40.0.0 ('Old Town Road + Pony') 64-bit
Writing library : libebml v1.3.9 + libmatroska v1.5.2
Video
ID : 1
Format : AVC
Format/Info : Advanced Video Codec
Format profile : [email protected]
Format settings : CABAC / 4 Ref Frames
Format settings, CABAC : Yes
Format settings, Reference : 4 frames
Codec ID : V_MPEG4/ISO/AVC
Duration : 1 h 44 min
Bit rate : 18.4 Mb/s
Width : 1 920 pixels
Height : 1 040 pixels
Display aspect ratio : 1.85:1
Frame rate mode : Constant
Frame rate : 23.976 (24000/1001) FPS
Color space : YUV
Chroma subsampling : 4:2:0
Bit depth : 8 bits
Scan type : Progressive
Bits/(Pixel*Frame) : 0.384
Stream size : 13.4 GiB (95%)
Title : GALVANiZE
Writing library : x264 core 158 r2984+49 6932f4a t_mod_New [[email protected] X86_64]
Encoding settings : cabac=1 / ref=4 / deblock=1:-3:-3 / analyse=0x3:0x133 / me=umh / subme=11 / psy=1 / fade_compensate=0.00 / psy_rd=1.05:0.00 / mixed_ref=1 / me_range=48 / chroma_me=1 / trellis=2 / 8x8dct=1 / cqm=0 / deadzone=21,11 / fast_pskip=0 / chroma_qp_offset=-2 / threads=12 / lookahead_threads=2 / sliced_threads=0 / nr=0 / decimate=0 / interlaced=0 / bluray_compat=0 / constrained_intra=0 / fgo=0 / bframes=9 / b_pyramid=2 / b_adapt=2 / b_bias=0 / direct=3 / weightb=1 / open_gop=0 / weightp=2 / keyint=250 / keyint_min=24 / scenecut=40 / intra_refresh=0 / rc_lookahead=250 / rc=2pass / mbtree=0 / bitrate=18400 / ratetol=1.0 / qcomp=0.63 / qpmin=0:0:0 / qpmax=69:69:69 / qpstep=4 / cplxblur=20.0 / qblur=0.5 / vbv_maxrate=78125 / vbv_bufsize=78125 / nal_hrd=none / filler=0 / ip_ratio=1.30 / pb_ratio=1.20 / aq=3:0.70 / aq-sensitivity=10.00 / aq-factor=1.00:1.00:1.00 / aq2=0 / aq3=0
Language : English
Default : Yes
Forced : No
Audio #1
ID : 2
Format : AC-3
Format/Info : Audio Coding 3
Commercial name : Dolby Digital
Codec ID : A_AC3
Duration : 1 h 44 min
Bit rate mode : Constant
Bit rate : 384 kb/s
Channel(s) : 6 channels
Channel layout : L R C LFE Ls Rs
Sampling rate : 48.0 kHz
Frame rate : 31.250 FPS (1536 SPF)
Bit depth : 16 bits
Compression mode : Lossy
Stream size : 286 MiB (2%)
Title : iTunes
Language : Russian
Service kind : Complete Main
Default : Yes
Forced : Yes
Audio #2
ID : 3
Format : AC-3
Format/Info : Audio Coding 3
Commercial name : Dolby Digital
Codec ID : A_AC3
Duration : 1 h 44 min
Bit rate mode : Constant
Bit rate : 640 kb/s
Channel(s) : 6 channels
Channel layout : L R C LFE Ls Rs
Sampling rate : 48.0 kHz
Frame rate : 31.250 FPS (1536 SPF)
Bit depth : 16 bits
Compression mode : Lossy
Stream size : 478 MiB (3%)
Title : Original
Language : English
Service kind : Complete Main
Default : No
Forced : No
Text #1
ID : 4
Format : UTF-8
Codec ID : S_TEXT/UTF8
Codec ID/Info : UTF-8 Plain Text
Duration : 1 h 39 min
Bit rate : 2 b/s
Count of elements : 47
Stream size : 1.79 KiB (0%)
Title : Forced [iTunes]
Language : Russian
Default : Yes
Forced : Yes
Text #2
ID : 5
Format : UTF-8
Codec ID : S_TEXT/UTF8
Codec ID/Info : UTF-8 Plain Text
Duration : 1 h 39 min
Bit rate : 74 b/s
Count of elements : 1072
Stream size : 54.1 KiB (0%)
Title : Full [iTunes]
Language : Russian
Default : No
Forced : No
Text #3
ID : 6
Format : UTF-8
Codec ID : S_TEXT/UTF8
Codec ID/Info : UTF-8 Plain Text
Duration : 1 h 39 min
Bit rate : 53 b/s
Count of elements : 1010
Stream size : 38.7 KiB (0%)
Title : Full
Language : English
Default : No
Forced : No
Text #4
ID : 7
Format : UTF-8
Codec ID : S_TEXT/UTF8
Codec ID/Info : UTF-8 Plain Text
Duration : 1 h 39 min
Bit rate : 57 b/s
Count of elements : 1161
Stream size : 41.7 KiB (0%)
Title : SDH
Language : English
Default : No
Forced : No
Menu
00:00:00.000 : :Chapter 01
00:05:58.107 : :Chapter 02
00:11:27.478 : :Chapter 03
00:16:24.900 : :Chapter 04
00:22:05.574 : :Chapter 05
00:27:34.861 : :Chapter 06
00:30:49.264 : :Chapter 07
00:37:58.526 : :Chapter 08
00:43:38.616 : :Chapter 09
00:47:33.058 : :Chapter 10
00:51:34.925 : :Chapter 11
00:57:38.955 : :Chapter 12
01:02:57.690 : :Chapter 13
01:09:50.311 : :Chapter 14
01:16:10.232 : :Chapter 15
01:20:53.682 : :Chapter 16
01:24:42.994 : :Chapter 17
01:30:55.450 : :Chapter 18
01:35:38.858 : :Chapter 19
01:39:41.350 : :Chapter 20
Релиз от:
[korsars.info].t26355.torrent 
Торрент: Зарегистрирован [ 2020-02-14 05:00 ] · 5A72D512CBFDBCF93275EE981B7F2758A1311495

Скачать .torrent

Размер .torrent файла 19 KB

Статус: проверено
.torrent скачан: 3 раз
Размер: 14,13 GB
Правила
Похожие темы

[Профиль] [ЛС]
Показать сообщения:    
Ответить на тему

Текущее время: 26-Сен 05:35

Часовой пояс: UTC + 4



Вы не можете начинать темы
Вы не можете отвечать на сообщения
Вы не можете редактировать свои сообщения
Вы не можете удалять свои сообщения
Вы не можете голосовать в опросах
Вы не можете прикреплять файлы к сообщениям
Вы можете скачивать файлы
Анализ сайта korsars.info Яндекс.Метрика