Соник Бум / Sonic Boom [S01] (2014-2015) WEB-DL 1080p | D

Ответить на тему
Статистика раздачи [Обновить пиров]
Размер:  21,87 GB   |    Зарегистрирован:  5 дней   |    .torrent скачан:  0 раз
Раздают:  13  [  0 KB/s  ]   Качают:  15  [  0 KB/s  ]   Подробная статистика пиров
 
   
 
 
Автор Сообщение

4udaki ®

Оффлайн



Пол: Мужской

Стаж: 5 лет 3 месяца

Наличие запрета:

Сообщений: 5869

Откуда: korsars.info

Отдача: 2 Mb/s

Загрузка: 20 Mb/s

Нажми

Создавать темы 14-Фев-2020 09:00

[Цитировать]

Соник Бум / Sonic Boom
Страна: США Франция
Производство: Sega of America, OuiDO! Productions
Год выпуска: 2014-2015
Жанр: мультфильм, фантастика, фэнтези, боевик, комедия, приключения, семейный
Продолжительность: 52х ~00:12:00
Режиссер: Наталис Раут Сьозак
Роли озвучивали: Роджер Крэйг Смит, Коллин О’Шонесси, Синди Робинсон, Трэвис Уиллингэм
Роли дублировали: Дарья Фролова, Даниил Эльдаров, Антон Савенков, Ольга Кузнецова
Описание: Приключения ёжика Соника и его друзей. Соник будет сражаться со своим ненавистным врагом доктором Эггманом, а помогать ему будут неизменные друзья: лисёнок Тейлза, ехидна Наклза, ежиха Эми Роуз и барсучиха Стикс. Также у Соника появятся новые враги, которые будут строить герою новые козни...

Перевод: Профессиональный (полное дублирование) | Селена Интернэшнл
Субтитры: английские (full), французские (full), немецкие (full) / полный список в Media Info-Качество: WEB-DL 1080p
Формат: МКV
Видео кодек: AVC
Аудио кодек: E-AC3
Видео: 1920x1080 (16:9), 25.000 fps, MPEG-4 AVC ~7 500 kbps avg
Аудио №1: 48.0 kHz, Enhanced Audio Coding 3, 2/0 (L,R) ch, ~128 kbps | RUS / Селена Интернэшнл
Аудио №2: 48.0 kHz, Enhanced Audio Coding 3, 3/2 (L,C,R,l,r) + LFE ch, ~640 kbps | ENG / Original
Формат субтитров: UTF-8 Plain Text
Дата премьеры (мир): 8 ноября 2014

Media Info

General
Complete name : Sonic.Boom.S01E01.WEB-DL.1080p.-Kyle.mkv
Format : Matroska
Format version : Version 4
File size : 659 MiB
Duration : 11 min 10 s
Overall bit rate mode : Variable
Overall bit rate : 8 250 kb/s
Encoded date : UTC 2020-01-09 11:50:00
Writing application : mkvmerge v42.0.0 ('Overtime') 64-bit
Writing library : libebml v1.3.10 + libmatroska v1.5.2
Video
ID : 1
Format : AVC
Format/Info : Advanced Video Codec
Format profile : [email protected]
Format settings : CABAC / 3 Ref Frames
Format settings, CABAC : Yes
Format settings, Reference : 3 frames
Codec ID : V_MPEG4/ISO/AVC
Duration : 11 min 10 s
Bit rate mode : Variable
Bit rate : 7 500 kb/s
Maximum bit rate : 11.2 Mb/s
Width : 1 920 pixels
Height : 1 080 pixels
Display aspect ratio : 16:9
Frame rate mode : Constant
Frame rate : 25.000 FPS
Color space : YUV
Chroma subsampling : 4:2:0
Bit depth : 8 bits
Scan type : Progressive
Bits/(Pixel*Frame) : 0.145
Stream size : 597 MiB (91%)
Title : English
Writing library : x264 core 118
Encoding settings : cabac=1 / ref=3 / deblock=1:0:0 / analyse=0x1:0x111 / me=umh / subme=10 / psy=1 / psy_rd=1.00:0.00 / mixed_ref=1 / me_range=24 / chroma_me=1 / trellis=2 / 8x8dct=0 / cqm=0 / deadzone=21,11 / fast_pskip=1 / chroma_qp_offset=-2 / threads=6 / sliced_threads=0 / nr=0 / decimate=1 / interlaced=0 / bluray_compat=0 / constrained_intra=0 / bframes=2 / b_pyramid=0 / b_adapt=2 / b_bias=0 / direct=3 / weightb=1 / open_gop=0 / weightp=2 / keyint=50 / keyint_min=26 / scenecut=0 / intra_refresh=0 / rc_lookahead=0 / rc=2pass / mbtree=1 / bitrate=7500 / ratetol=1.0 / qcomp=0.50 / qpmin=6 / qpmax=51 / qpstep=4 / cplxblur=20.0 / qblur=0.5 / vbv_maxrate=11250 / vbv_bufsize=15000 / nal_hrd=vbr / ip_ratio=1.40 / aq=1:1.00
Language : English
Default : Yes
Forced : No
Audio #1
ID : 2
Format : E-AC-3
Format/Info : Enhanced AC-3
Commercial name : Dolby Digital Plus
Codec ID : A_EAC3
Duration : 11 min 10 s
Bit rate mode : Constant
Bit rate : 128 kb/s
Channel(s) : 2 channels
Channel layout : L R
Sampling rate : 48.0 kHz
Frame rate : 31.250 FPS (1536 SPF)
Compression mode : Lossy
Stream size : 10.2 MiB (2%)
Title : Russian
Language : Russian
Service kind : Complete Main
Default : Yes
Forced : No
Audio #2
ID : 3
Format : E-AC-3
Format/Info : Enhanced AC-3
Commercial name : Dolby Digital Plus
Codec ID : A_EAC3
Duration : 11 min 10 s
Bit rate mode : Constant
Bit rate : 640 kb/s
Channel(s) : 6 channels
Channel layout : L R C LFE Ls Rs
Sampling rate : 48.0 kHz
Frame rate : 31.250 FPS (1536 SPF)
Compression mode : Lossy
Stream size : 51.1 MiB (8%)
Title : English
Language : English
Service kind : Complete Main
Default : No
Forced : No
Text #1
ID : 4
Format : UTF-8
Codec ID : S_TEXT/UTF8
Codec ID/Info : UTF-8 Plain Text
Duration : 10 min 51 s
Bit rate : 63 b/s
Count of elements : 158
Stream size : 5.07 KiB (0%)
Title : English
Language : English
Default : No
Forced : No
Text #2
ID : 5
Format : UTF-8
Codec ID : S_TEXT/UTF8
Codec ID/Info : UTF-8 Plain Text
Duration : 10 min 44 s
Bit rate : 61 b/s
Count of elements : 104
Stream size : 4.87 KiB (0%)
Title : Dutch
Language : Dutch
Default : No
Forced : No
Text #3
ID : 6
Format : UTF-8
Codec ID : S_TEXT/UTF8
Codec ID/Info : UTF-8 Plain Text
Duration : 10 min 44 s
Bit rate : 65 b/s
Count of elements : 106
Stream size : 5.14 KiB (0%)
Title : French
Language : French
Default : No
Forced : No
Text #4
ID : 7
Format : UTF-8
Codec ID : S_TEXT/UTF8
Codec ID/Info : UTF-8 Plain Text
Duration : 10 min 44 s
Bit rate : 59 b/s
Count of elements : 107
Stream size : 4.65 KiB (0%)
Title : Polish
Language : Polish
Default : No
Forced : No
Text #5
ID : 8
Format : UTF-8
Codec ID : S_TEXT/UTF8
Codec ID/Info : UTF-8 Plain Text
Duration : 10 min 44 s
Bit rate : 59 b/s
Count of elements : 104
Stream size : 4.70 KiB (0%)
Title : Brazilian Portuguese
Language : Portuguese
Default : No
Forced : No
Text #6
ID : 9
Format : UTF-8
Codec ID : S_TEXT/UTF8
Codec ID/Info : UTF-8 Plain Text
Duration : 10 min 44 s
Bit rate : 66 b/s
Count of elements : 113
Stream size : 5.24 KiB (0%)
Title : German
Language : German
Default : No
Forced : No
Text #7
ID : 10
Format : UTF-8
Codec ID : S_TEXT/UTF8
Codec ID/Info : UTF-8 Plain Text
Duration : 10 min 44 s
Bit rate : 61 b/s
Count of elements : 109
Stream size : 4.85 KiB (0%)
Title : European Spanish
Language : Spanish
Default : No
Forced : No
Text #8
ID : 11
Format : UTF-8
Codec ID : S_TEXT/UTF8
Codec ID/Info : UTF-8 Plain Text
Duration : 10 min 51 s
Bit rate : 92 b/s
Count of elements : 106
Stream size : 7.35 KiB (0%)
Title : Greek
Language : Greek
Default : No
Forced : No
Text #9
ID : 12
Format : UTF-8
Codec ID : S_TEXT/UTF8
Codec ID/Info : UTF-8 Plain Text
Duration : 10 min 44 s
Bit rate : 65 b/s
Count of elements : 107
Stream size : 5.17 KiB (0%)
Title : Turkish
Language : Turkish
Default : No
Forced : No
Text #10
ID : 13
Format : UTF-8
Codec ID : S_TEXT/UTF8
Codec ID/Info : UTF-8 Plain Text
Duration : 10 min 44 s
Bit rate : 64 b/s
Count of elements : 106
Stream size : 5.10 KiB (0%)
Title : Italian
Language : Italian
Default : No
Forced : No
Text #11
ID : 14
Format : UTF-8
Codec ID : S_TEXT/UTF8
Codec ID/Info : UTF-8 Plain Text
Duration : 10 min 44 s
Bit rate : 57 b/s
Count of elements : 108
Stream size : 4.50 KiB (0%)
Title : Portuguese
Language : Portuguese
Default : No
Forced : No
Text #12
ID : 15
Format : UTF-8
Codec ID : S_TEXT/UTF8
Codec ID/Info : UTF-8 Plain Text
Duration : 10 min 44 s
Bit rate : 62 b/s
Count of elements : 106
Stream size : 4.90 KiB (0%)
Title : Spanish
Language : Spanish
Default : No
Forced : No

Скриншоты

[korsars.info].t26357.torrent 
Торрент: Зарегистрирован [ 2020-02-14 09:00 ] · B792E94170514C029992574614D370E743324A69

Скачать .torrent

Скачать .torrent

114 KB

Статус: проверено
.torrent скачан: 0 раз
Размер: 21,87 GB
Правила
Похожие темы

[Профиль] [ЛС]
Показать сообщения:    
Ответить на тему

Текущее время: 19-Фев 15:50

Часовой пояс: UTC + 4



Вы не можете начинать темы
Вы не можете отвечать на сообщения
Вы не можете редактировать свои сообщения
Вы не можете удалять свои сообщения
Вы не можете голосовать в опросах
Вы не можете прикреплять файлы к сообщениям
Вы можете скачивать файлы
Анализ сайта korsars.info Яндекс.Метрика