Без ограничений / No Limit [S03] (2015) BDRip 720p | TVShows

Ответить на тему
Статистика раздачи [Обновить пиров]
Размер:  9,85 GB   |    Зарегистрирован:  22 дня   |    .torrent скачан:  0 раз

Полного источника не было: Никогда

Качают:  1  [  0 KB/s  ]   Подробная статистика пиров
 
   
 
 
 
Автор Сообщение

4udaki ®

Оффлайн

Медали


Пол: Мужской

Стаж: 5 лет 5 месяцев

Наличие запрета:

Сообщений: 6329

Откуда: korsars.info

Отдача: 2 Mb/s

Загрузка: 20 Mb/s

Нажми

Создавать темы 11-Мар-2020 13:00

[Цитировать]

Без ограничений / No Limit
Страна: Франция
Производство: Europacorp Television, TF1, CNC
Год выпуска: 2015
Жанр: боевик, триллер, драма, криминал, приключения
Продолжительность: 6х ~00:53:00
Режиссер: Людовик Кольбо-Жюстен
В ролях: Венсан Эльбаз, Энн Жирар, Сара Брэнненс, Филипп Эриссон, Франк де ла Персонн, Жан-Мари Пэрис, Бернар Детуш, Дамьен Жуйро, Макита Самба, Ванесса Гид, Кристоф Каротенуто, Милен Демонжо, Махмаду Кулибали
Описание: Страшная болезнь заставляет Винсента отказаться от жизни военного и возвратиться в Марсель к семье. Правительство предлагает ему современную медицинскую помощь, но взамен он должен вступить в секретную организацию «Гидра»...

Перевод: Профессиональный (многоголосый, закадровый) | TVShows
Субтитры: английские (full)-Качество: BDRip 720p
Формат: МКV
Видео кодек: AVC
Аудио кодек: АС3 | ААС
Видео: 1920x1080 (16:9), 25.000 fps, MPEG-4 AVC ~4 428 kbps avg
Аудио №1: 48.0 kHz, AC3 Dolby Digital, 2/0 (L,R) ch, ~192 kbps | RUS / MVO / TVShows
Аудио №2: 48.0 kHz, Advanced Audio Codec Low Complexity, 2/0 (L,R) ch, ~100 kbps | FRE
Формат субтитров: UTF-8 Plain Text
Дата премьеры (мир): 8 января 2015

Media Info

General
Уникальный идентификатор : 22111619941934581880385121202344649941 (0x10A28B085F6D308E137C1A4C041964D5)
Полное имя : No.Limit.S03E03.720p.TVShows.mkv
Формат : Matroska
Версия формата : Version 4
Размер файла : 1,54 Гбайт
Продолжительность : 46 м. 33 с.
Общий поток : 4723 Кбит/сек
Дата кодирования : UTC 2019-12-04 13:22:47
Программа кодирования : mkvmerge v33.1.0 ('Primrose') 64-bit
Библиотека кодирования : libebml v1.3.7 + libmatroska v1.5.0
Видео
Идентификатор : 1
Формат : AVC
Формат/Информация : Advanced Video Codec
Профиль формата : [email protected]
Настройки формата : CABAC / 2 Ref Frames
Параметр CABAC формата : Да
Параметр RefFrames формата : 2 кадра
Параметр GOP формата : M=1, N=25
Идентификатор кодека : V_MPEG4/ISO/AVC
Продолжительность : 46 м. 33 с.
Битрейт : 4428 Кбит/сек
Ширина : 1280 пикселей
Высота : 720 пикселей
Соотношение сторон : 16:9
Режим частоты кадров : Постоянный
Частота кадров : 25,000 кадров/сек
Цветовое пространство : YUV
Субдискретизация насыщенности : 4:2:0
Битовая глубина : 8 бит
Тип развёртки : Прогрессивная
Бит/(Пиксели*Кадры) : 0.192
Размер потока : 1,44 Гбайт (94%)
Язык : French
Default : Да
Forced : Нет
Аудио #1
Идентификатор : 2
Формат : AC-3
Формат/Информация : Audio Coding 3
Коммерческое название : Dolby Digital
Идентификатор кодека : A_AC3
Продолжительность : 46 м. 33 с.
Вид битрейта : Постоянный
Битрейт : 192 Кбит/сек
Каналы : 2 канала
ChannelLayout : L R
Частота : 48,0 КГц
Частота кадров : 31,250 кадров/сек (1536 SPF)
Битовая глубина : 16 бит
Метод сжатия : С потерями
Размер потока : 63,9 Мбайт (4%)
Заголовок : TVShows
Язык : Russian
Default : Да
Forced : Да
Аудио #2
Идентификатор : 3
Формат : AAC LC
Формат/Информация : Advanced Audio Codec Low Complexity
Идентификатор кодека : A_AAC-2
Продолжительность : 46 м. 33 с.
Битрейт : 99,9 Кбит/сек
Каналы : 2 канала
ChannelLayout : L R
Частота : 48,0 КГц
Частота кадров : 46,875 кадров/сек (1024 SPF)
Метод сжатия : С потерями
Размер потока : 33,3 Мбайт (2%)
Заголовок : Original
Язык : French
Default : Нет
Forced : Нет
Текст
Идентификатор : 4
Формат : UTF-8
Идентификатор кодека : S_TEXT/UTF8
Идентификатор кодека/Информация : UTF-8 Plain Text
Продолжительность : 45 м. 22 с.
Битрейт : 56 бит/сек
ElementCount : 569
Размер потока : 18,8 Кбайт (0%)
Заголовок : English
Язык : English
Default : Нет
Forced : Нет

Скриншоты

[korsars.info].t27004.torrent 
Торрент: Зарегистрирован [ 2020-03-11 13:00 ] · C76F07AC75A0F05BF515C182E6E741382469FB9D

Скачать .torrent

Скачать .torrent

50 KB

Статус: проверено
.torrent скачан: 0 раз
Размер: 9,85 GB
Правила
Похожие темы

[Профиль] [ЛС]
Показать сообщения:    
Ответить на тему

Текущее время: 03-Апр 11:07

Часовой пояс: UTC + 4



Вы не можете начинать темы
Вы не можете отвечать на сообщения
Вы не можете редактировать свои сообщения
Вы не можете удалять свои сообщения
Вы не можете голосовать в опросах
Вы не можете прикреплять файлы к сообщениям
Вы можете скачивать файлы
Анализ сайта korsars.info Яндекс.Метрика