Клан Сопрано / The Sopranos [S01] (1999) BDRip 720p | P, A

Ответить на тему
Статистика раздачи [Обновить пиров]
Размер:  50,23 GB   |    Зарегистрирован:  12 дней   |    .torrent скачан:  0 раз
Раздают:  10  [  0 KB/s  ]   Качают:  5  [  0 KB/s  ]   Подробная статистика пиров
 
   
 
 
Автор Сообщение

Skorp10n ®

Оффлайн

Медали
Активный раздающий 1Активный раздающий 2Активный релизер 1000Активный релизер 1500
Активный релизер 2000Активный релизер 250Активный релизер 3000Активный релизер 500Активный релизер 5000Активный релизер Фильмов (1000)Активный релизер Фильмов (300)Активный релизер Фильмов (600)Активный Форумчанин 1Активный Форумчанин 2Активный Форумчанин 3Активный Форумчанин 4Друг трекераКарма 1000Карма 1500Карма 3000Карма 500МеценатНи дня без новостейОрденосец 1 степениОрденосец 2 степениОрденосец 3 степениПочетный орденосецПочетный репортерС Новым 2016 Годом!С Новым 2017 Годом!С Новым 2018 Годом!С Новым 2019 Годом!Супер Мега Контер КвейкТОП-10


Пол: Мужской

Стаж: 4 года 7 месяцев

Наличие запрета:

Сообщений: 11619

Откуда: KORSARS

Отдача: не определено

Загрузка: не определено

Нажми

Создавать темы 21-Мар-2020 21:34

[Цитировать]

Информация о фильме- Название: Клан Сопрано
Оригинальное название: The Sopranos
Год выхода: 1999
Жанр: драма, криминал
Режиссер: Дэвид Чейз, Аллен Култер, Тим Ван Паттен, Стив Бушеми и другие
В ролях: Джеймс Гандолфини, Эди Фалко, Майкл Империоли, Лоррейн Бракко, Стив Ван Зандт, Тони Сирико, Винсент Пасторе, Роберт Айлер, Джеми-Линн Сиглер, Эйда Туртурро, Доминик Кианези, Дреа де Маттео, Нэнси Маршан, Стив Бушеми, Джон Вентимилья, Дэн Грималди, Кэтрин Нардуччи и другие-О фильме: Настоящий феномен в истории телевидения, ставший визитной карточкой HBO. Авторитетный мафиози Тони Сопрано терпеливо разруливает многочисленные семейные проблемы. Его дядюшка Джуниор, старший по званию бандит, постоянно вставляет Тони палки в колеса, брак явно переживает кризис, дети регулярно приносят малоприятные сюрпризы, а маразматичная матушка попадает в историю за историей. У сильного и влиятельного Тони голова натурально идет кругом, и он обращается к психоаналитику. Однако эту затею нужно держать в строжайшей тайне от коллег. При такой непростой профессии откровения на кушетке могут кончиться совсем печально.--Страна: США
Студия: HBO
Продолжительность: ~01:00:00 серия
Перевод: Профессиональный (многоголосый, закадровый), Авторский (одноголосый, закадровый)-Файл-Качество: BDRip 720p
Формат: Matroska
Видео: 1280x720 at 23.976 fps, x264, ~8500 kbps avg
Аудио#1: Russian: 48 kHz, AC3, 2/0 (L,R) ch, ~192 kbps avg |Авторский, Дмитрий «Goblin» Пучков (2020)|
Аудио#2: Russian: 48 kHz, AC3, 3/2 (L,C,R,l,r) + LFE ch, ~640 kbps avg |Авторский, Юрий Сербин|
Аудио#3: Russian: 48 kHz, AC3, 3/2 (L,C,R,l,r) + LFE ch, ~640 kbps avg |Многоголосый закадровый, Amedia|
Аудио#4: English: 48 kHz, AC3, 3/2 (L,C,R,l,r) + LFE ch, ~640 kbps avg
Аудио#5: English: 48 kHz, AC3, 2/0 (L,R) ch, ~192 kbps avg |Commentary|
Субтитры: Russian (Amedia), English-***В сериале присутствуют сцены насилия и жестокости, сексуального характера, употребления алкоголя и наркотиков.
***В переводах Д.Пучкова и Ю.Сербина присутствует ненормативная лексика.
***Перевод Д.Пучкова новый, вышедший в 2020 году. C 31 января каждую пятницу на wink и amediateka будет выходить по два эпизода.
***Перевод Ю.Сербина доступен благодаря пользователям hdclub (r.i.p.), rutrаckеr и e180.
***Релиз: Pro_Rock_-

MediaInfo

-General
Complete name : The.Sopranos.S01E01.720p.BluRay.3xRus.Eng.HBO.mkv
Format : Matroska
Format version : Version 4 / Version 2
File size : 4.53 GiB
Duration : 1 h 0 min
Overall bit rate : 10.8 Mb/s
Encoded date : UTC 2020-02-01 06:14:23
Writing application : mkvmerge v6.6.0 ('The Edge Of The In Between') built on Dec 1 2013 17:55:00
Writing library : libebml v1.3.0 + libmatroska v1.4.1
Video
ID : 1
Format : AVC
Format/Info : Advanced Video Codec
Format profile : [email protected]
Format settings : CABAC / 9 Ref Frames
Format settings, CABAC : Yes
Format settings, ReFrames : 9 frames
Codec ID : V_MPEG4/ISO/AVC
Duration : 1 h 0 min
Bit rate : 8 500 kb/s
Width : 1 280 pixels
Height : 720 pixels
Display aspect ratio : 16:9
Frame rate mode : Constant
Frame rate : 23.976 (24000/1001) FPS
Color space : YUV
Chroma subsampling : 4:2:0
Bit depth : 8 bits
Scan type : Progressive
Bits/(Pixel*Frame) : 0.385
Stream size : 3.47 GiB (77%)
Writing library : x264 core 159 r2991 1771b55
Encoding settings : cabac=1 / ref=9 / deblock=1:-3:-3 / analyse=0x3:0x113 / me=umh / subme=11 / psy=1 / psy_rd=1.00:0.00 / mixed_ref=1 / me_range=32 / chroma_me=1 / trellis=2 / 8x8dct=1 / cqm=0 / deadzone=21,11 / fast_pskip=0 / chroma_qp_offset=-3 / threads=12 / lookahead_threads=3 / sliced_threads=0 / nr=0 / decimate=1 / interlaced=0 / bluray_compat=0 / constrained_intra=0 / bframes=12 / b_pyramid=2 / b_adapt=2 / b_bias=0 / direct=3 / weightb=1 / open_gop=0 / weightp=2 / keyint=230 / keyint_min=23 / scenecut=40 / intra_refresh=0 / rc_lookahead=40 / rc=2pass / mbtree=0 / bitrate=8500 / ratetol=1.0 / qcomp=0.60 / qpmin=0 / qpmax=69 / qpstep=4 / cplxblur=20.0 / qblur=0.5 / vbv_maxrate=50000 / vbv_bufsize=62500 / nal_hrd=none / filler=0 / ip_ratio=1.40 / pb_ratio=1.30 / aq=3:0.80
Language : English
Default : Yes
Forced : No
Audio #1
ID : 2
Format : AC-3
Format/Info : Audio Coding 3
Codec ID : A_AC3
Duration : 1 h 0 min
Bit rate mode : Constant
Bit rate : 192 kb/s
Channel(s) : 2 channels
Channel positions : Front: L R
Sampling rate : 48.0 kHz
Frame rate : 31.250 FPS (1536 SPF)
Bit depth : 16 bits
Compression mode : Lossy
Stream size : 82.4 MiB (2%)
Title : DD 2.0 @ 192 kbps - Goblin
Language : Russian
Service kind : Complete Main
Default : Yes
Forced : No
Audio #2
ID : 3
Format : AC-3
Format/Info : Audio Coding 3
Codec ID : A_AC3
Duration : 1 h 0 min
Bit rate mode : Constant
Bit rate : 640 kb/s
Channel(s) : 6 channels
Channel positions : Front: L C R, Side: L R, LFE
Sampling rate : 48.0 kHz
Frame rate : 31.250 FPS (1536 SPF)
Bit depth : 16 bits
Compression mode : Lossy
Stream size : 275 MiB (6%)
Title : DD 5.1 @ 640 kbps - Serbin
Language : Russian
Service kind : Complete Main
Default : No
Forced : No
Audio #3
ID : 4
Format : AC-3
Format/Info : Audio Coding 3
Codec ID : A_AC3
Duration : 1 h 0 min
Bit rate mode : Constant
Bit rate : 640 kb/s
Channel(s) : 6 channels
Channel positions : Front: L C R, Side: L R, LFE
Sampling rate : 48.0 kHz
Frame rate : 31.250 FPS (1536 SPF)
Bit depth : 16 bits
Compression mode : Lossy
Stream size : 275 MiB (6%)
Title : DD 5.1 @ 640 kbps - Amedia
Language : Russian
Service kind : Complete Main
Default : No
Forced : No
Audio #4
ID : 5
Format : AC-3
Format/Info : Audio Coding 3
Codec ID : A_AC3
Duration : 1 h 0 min
Bit rate mode : Constant
Bit rate : 640 kb/s
Channel(s) : 6 channels
Channel positions : Front: L C R, Side: L R, LFE
Sampling rate : 48.0 kHz
Frame rate : 31.250 FPS (1536 SPF)
Bit depth : 16 bits
Compression mode : Lossy
Stream size : 275 MiB (6%)
Title : DD 5.1 @ 640 kbps - Original
Language : English
Service kind : Complete Main
Default : No
Forced : No
Audio #5
ID : 6
Format : AC-3
Format/Info : Audio Coding 3
Codec ID : A_AC3
Duration : 1 h 0 min
Bit rate mode : Constant
Bit rate : 192 kb/s
Channel(s) : 2 channels
Channel positions : Front: L R
Sampling rate : 48.0 kHz
Frame rate : 31.250 FPS (1536 SPF)
Bit depth : 16 bits
Compression mode : Lossy
Stream size : 82.4 MiB (2%)
Title : DD 2.0 @ 192 kbps - Commentary
Language : English
Service kind : Complete Main
Default : No
Forced : No
Text #1
ID : 7
Format : UTF-8
Codec ID : S_TEXT/UTF8
Codec ID/Info : UTF-8 Plain Text
Title : Amedia
Language : Russian
Default : No
Forced : No
Text #2
ID : 8
Format : UTF-8
Codec ID : S_TEXT/UTF8
Codec ID/Info : UTF-8 Plain Text
Language : English
Default : No
Forced : No
Text #3
ID : 9
Format : UTF-8
Codec ID : S_TEXT/UTF8
Codec ID/Info : UTF-8 Plain Text
Title : SDH
Language : English
Default : No
Forced : No
Menu
00:00:00.000 : en:00:00:00.000
00:01:39.725 : en:00:01:39.725
00:18:35.781 : en:00:18:35.781
00:25:59.808 : en:00:25:59.808
00:33:22.334 : en:00:33:22.334
00:41:47.922 : en:00:41:47.922
00:49:58.495 : en:00:49:58.495
00:59:08.545 : en:00:59:08.545-
-

Скриншоты

--
-
[korsars.info].t27279.torrent 
Торрент: Зарегистрирован [ 2020-03-21 21:34 ] · 76A38FB43557D564A999A21350FB900564F3A862

Скачать .torrent

Скачать .torrent

253 KB

Статус: проверено
.torrent скачан: 0 раз
Размер: 50,23 GB
Правила
4udaki(21-Мар-20)
Похожие темы

[Профиль] [ЛС]
Показать сообщения:    
Ответить на тему

Текущее время: 03-Апр 12:30

Часовой пояс: UTC + 4



Вы не можете начинать темы
Вы не можете отвечать на сообщения
Вы не можете редактировать свои сообщения
Вы не можете удалять свои сообщения
Вы не можете голосовать в опросах
Вы не можете прикреплять файлы к сообщениям
Вы можете скачивать файлы
Анализ сайта korsars.info Яндекс.Метрика