Форсаж: Хоббс и Шоу / Fast & Furious Presents: Hobbs & Shaw (2019) BDRemux 1080p от селезень | Лицензия

Ответить на тему
Статистика раздачи [Обновить пиров]
Размер:  31,47 GB   |    Зарегистрирован:  15 дней   |    .torrent скачан:  0 раз
Раздают:  38  [  0 KB/s  ]   Качают:  9  [  0 KB/s  ]   Подробная статистика пиров
 
   
 
 
Автор Сообщение

4udaki ®

Онлайн

Медали


Пол: Мужской

Стаж: 5 лет 5 месяцев

Наличие запрета:

Сообщений: 6354

Откуда: korsars.info

Отдача: 2 Mb/s

Загрузка: 20 Mb/s

Нажми

Создавать темы 22-Мар-2020 01:00

[Цитировать]

Информация о фильме
Название: Форсаж: Хоббс и Шоу
Оригинальное название: Fast & Furious Presents: Hobbs & Shaw
Год выхода: 2019
Жанр: Боевик, приключения
Режиссер: Дэвид Литч
В ролях: Дуэйн Джонсон, Джейсон Стэйтем, Идрис Эльба, Райан Рейнольдс, Ванесса Кирби, Хелен Миррен, Эйса Гонсалес, Эдди Марсан, Элиана Суа, Клифф Кёртис, Лори Пеленис Туисано

О фильме: Люк Хоббс - американский элитный спецагент, он любит удобную спортивную одежду, большие пикапы и здоровое питание. Декард Шоу - британский пижон, бывший сотрудник разведки, предпочитает дорогие костюмы, спортивные авто и длинноногих красоток. Эти двое ненавидят друг друга. Но если кто-то угрожает их семьям, они готовы пойти на все. Даже на работу в команде.
Страна: Великобритания, США
Студия: Universal Pictures
Продолжительность: 02:16:42
Перевод: Дублированный | Лицензия
Качество: BDRemux 1080p
Видео: MPEG-4 AVC, 1920x1080, 28.7 Mbit/s, 23.976 fps
Аудио #01: 48 kHz, AC3, 5.1, 640 Kbps | Лицензия | RUS |
Аудио #02: 48 kHz, TrueHD, 7.1, 3141 Kbps | Оригинал | ENG |
Аудио #03: 48 kHz, AC3, 5.1, 448 Kbps | Оригинал | ENG |
Субтитры: Русские (2 x Forced, full), английские

Скриншоты

MI

General
Unique ID : 183966583635408013948661831504029660447 (0x8A66ACDB2718990CAD4C6F030F49B51F)
Complete name : F:Video111Fast.and.Furious.Presents.Hobbs.and.Shaw.2019.Lic.BDREMUX.1080p.seleZen.mkv
Format : Matroska
Format version : Version 4
File size : 31.5 GiB
Duration : 2 h 16 min
Overall bit rate mode : Variable
Overall bit rate : 33.0 Mb/s
Movie name : Fast and Furious Presents Hobbs and Shaw 2019 from селезень
Encoded date : UTC 2019-11-22 20:27:17
Writing application : mkvmerge v40.0.0 ('Old Town Road + Pony') 64-bit
Writing library : libebml v1.3.9 + libmatroska v1.5.2
Video
ID : 1
Format : AVC
Format/Info : Advanced Video Codec
Format profile : [email protected]
Format settings : CABAC / 4 Ref Frames
Format settings, CABAC : Yes
Format settings, Reference : 4 frames
Codec ID : V_MPEG4/ISO/AVC
Duration : 2 h 16 min
Bit rate mode : Variable
Bit rate : 28.7 Mb/s
Maximum bit rate : 37.3 Mb/s
Width : 1 920 pixels
Height : 1 080 pixels
Display aspect ratio : 16:9
Frame rate mode : Constant
Frame rate : 23.976 (24000/1001) FPS
Color space : YUV
Chroma subsampling : 4:2:0
Bit depth : 8 bits
Scan type : Progressive
Bits/(Pixel*Frame) : 0.576
Stream size : 27.4 GiB (87%)
Language : English
Default : Yes
Forced : No
Audio #1
ID : 2
Format : AC-3
Format/Info : Audio Coding 3
Commercial name : Dolby Digital
Codec ID : A_AC3
Duration : 2 h 16 min
Bit rate mode : Constant
Bit rate : 640 kb/s
Channel(s) : 6 channels
Channel layout : L R C LFE Ls Rs
Sampling rate : 48.0 kHz
Frame rate : 31.250 FPS (1536 SPF)
Bit depth : 16 bits
Compression mode : Lossy
Stream size : 626 MiB (2%)
Title : Dub [License]
Language : Russian
Service kind : Complete Main
Default : Yes
Forced : Yes
Audio #2
ID : 3
Format : MLP FBA 16-ch
Format/Info : Meridian Lossless Packing FBA with 16-channel presentation
Commercial name : Dolby TrueHD with Dolby Atmos
Codec ID : A_TRUEHD
Duration : 2 h 16 min
Bit rate mode : Variable
Bit rate : 3 141 kb/s
Maximum bit rate : 5 394 kb/s
Channel(s) : 8 channels
Channel layout : L R C LFE Ls Rs Lb Rb
Sampling rate : 48.0 kHz
Frame rate : 1 200.000 FPS (40 SPF)
Compression mode : Lossless
Stream size : 3.00 GiB (10%)
Title : Original
Language : English
Default : No
Forced : No
Number of dynamic objects : 11
Bed channel count : 1 channel
Bed channel configuration : LFE
Audio #3
ID : 4
Format : AC-3
Format/Info : Audio Coding 3
Commercial name : Dolby Digital
Codec ID : A_AC3
Duration : 2 h 16 min
Bit rate mode : Constant
Bit rate : 448 kb/s
Channel(s) : 6 channels
Channel layout : L R C LFE Ls Rs
Sampling rate : 48.0 kHz
Frame rate : 31.250 FPS (1536 SPF)
Bit depth : 16 bits
Compression mode : Lossy
Stream size : 438 MiB (1%)
Language : English
Service kind : Complete Main
Default : No
Forced : No
Text #1
ID : 5
Format : UTF-8
Codec ID : S_TEXT/UTF8
Codec ID/Info : UTF-8 Plain Text
Duration : 1 h 57 min
Bit rate : 0 b/s
Count of elements : 19
Stream size : 778 Bytes (0%)
Title : Forced [License]
Language : Russian
Default : Yes
Forced : Yes
Text #2
ID : 6
Format : UTF-8
Codec ID : S_TEXT/UTF8
Codec ID/Info : UTF-8 Plain Text
Duration : 2 h 4 min
Bit rate : 1 b/s
Count of elements : 48
Stream size : 1.42 KiB (0%)
Title : Forced v.2 [seleZen]
Language : Russian
Default : No
Forced : No
Text #3
ID : 7
Format : UTF-8
Codec ID : S_TEXT/UTF8
Codec ID/Info : UTF-8 Plain Text
Duration : 2 h 4 min
Bit rate : 86 b/s
Count of elements : 1767
Stream size : 79.4 KiB (0%)
Title : Full [License]
Language : Russian
Default : No
Forced : No
Text #4
ID : 8
Format : UTF-8
Codec ID : S_TEXT/UTF8
Codec ID/Info : UTF-8 Plain Text
Duration : 2 h 1 min
Bit rate : 61 b/s
Count of elements : 1947
Stream size : 54.9 KiB (0%)
Title : Full
Language : English
Default : No
Forced : No
Menu
00:00:00.000 : en:Chapter 01
00:04:58.131 : en:Chapter 02
00:13:43.489 : en:Chapter 03
00:19:21.452 : en:Chapter 04
00:26:45.979 : en:Chapter 05
00:35:41.514 : en:Chapter 06
00:40:13.244 : en:Chapter 07
00:46:22.029 : en:Chapter 08
00:51:34.216 : en:Chapter 09
00:57:51.802 : en:Chapter 10
01:01:53.251 : en:Chapter 11
01:08:45.163 : en:Chapter 12
01:14:22.833 : en:Chapter 13
01:19:48.075 : en:Chapter 14
01:24:59.261 : en:Chapter 15
01:32:58.198 : en:Chapter 16
01:38:48.923 : en:Chapter 17
01:46:32.970 : en:Chapter 18
01:53:29.594 : en:Chapter 19
02:01:14.809 : en:Chapter 20

eac3to Log

eac3to v3.34
------------------------------------------------------------------------------
M2TS, 1 video track, 5 audio tracks, 5 subtitle tracks, 2:16:42, 24p /1.001
1: Chapters, 20 chapters
2: h264/AVC, 1080p24 /1.001 (16:9)
3: TrueHD/AC3 (Atmos), English, 7.1 channels, 48kHz
(embedded: AC3, 5.1 channels, 448kbps, 48kHz, dialnorm: -27dB)
4: E-AC3, Spanish, 7.1 channels, 768kbps, 48kHz, dialnorm: -27dB
(core: AC3, 5.1 channels, 448kbps, 48kHz, dialnorm: -27dB)
5: E-AC3, French, 7.1 channels, 768kbps, 48kHz, dialnorm: -27dB
(core: AC3, 5.1 channels, 448kbps, 48kHz, dialnorm: -27dB)
6: AC3 Surround, English, 2.0 channels, 192kbps, 48kHz, dialnorm: -24dB, -17ms
7: AC3 Surround, English, 2.0 channels, 192kbps, 48kHz, dialnorm: -27dB, -17ms
8: Subtitle (PGS), English
9: Subtitle (PGS), Spanish
10: Subtitle (PGS), French
11: Subtitle (PGS), Spanish
12: Subtitle (PGS), French
Creating file "00246 - Chapters.txt"...
[s12] Extracting subtitle track number 12...
[a04] Extracting audio track number 4...
[a06] Extracting audio track number 6...
[v02] Extracting video track number 2...
[a07] Extracting audio track number 7...
[s10] Extracting subtitle track number 10...
[a05] Extracting audio track number 5...
[a03] Extracting audio track number 3...
[a06] Applying (E-)AC3 delay...
[s11] Extracting subtitle track number 11...
[s08] Extracting subtitle track number 8...
[s09] Extracting subtitle track number 9...
[a07] Applying (E-)AC3 delay...
[a06] A remaining delay of +15ms could not be fixed.
[a07] A remaining delay of +15ms could not be fixed.
[v02] Creating file "00246 - 2 - h264, 1080p24.h264"...
[a03] Creating file "00246 - 3 - TrueHD+AC3 (Atmos), English, 7.1 channels, 48kHz.thd+ac3"...
[a05] Creating file "00246 - 5 - E-AC3, French, 7.1 channels, 768kbps, 48kHz.eac3"...
[a04] Creating file "00246 - 4 - E-AC3, Spanish, 7.1 channels, 768kbps, 48kHz.eac3"...
[a07] Creating file "00246 - 7 - AC3 Surround, English, 2.0 channels, 192kbps, 48kHz.ac3"...
[a06] Creating file "00246 - 6 - AC3 Surround, English, 2.0 channels, 192kbps, 48kHz.ac3"...
[s08] Creating file "00246 - 8 - Subtitle (PGS), English.sup"...
[s09] Creating file "00246 - 9 - Subtitle (PGS), Spanish.sup"...
[s10] Creating file "00246 - 10 - Subtitle (PGS), French.sup"...
[s11] Creating file "00246 - 11 - Subtitle (PGS), Spanish.sup"...
[s12] Creating file "00246 - 12 - Subtitle (PGS), French.sup"...
Video track 2 contains 196657 frames.
Subtitle track 8 contains 2204 captions.
Subtitle track 9 contains 1667 captions.
Subtitle track 10 contains 1654 captions.
Subtitle track 11 contains 28 captions.
Subtitle track 12 contains 49 captions.
eac3to processing took 3 minutes, 53 seconds.
Done.
Релиз от:
[korsars.info].t27286.torrent 
Торрент: Зарегистрирован [ 2020-03-22 01:00 ] · E157888DDC3CB8A70F2E29A524F9460F1E696B81

Скачать .torrent

Скачать .torrent

40 KB

Статус: проверено
.torrent скачан: 0 раз
Размер: 31,47 GB
Правила
Похожие темы

[Профиль] [ЛС]
Показать сообщения:    
Ответить на тему

Текущее время: 06-Апр 22:13

Часовой пояс: UTC + 4



Вы не можете начинать темы
Вы не можете отвечать на сообщения
Вы не можете редактировать свои сообщения
Вы не можете удалять свои сообщения
Вы не можете голосовать в опросах
Вы не можете прикреплять файлы к сообщениям
Вы можете скачивать файлы
Анализ сайта korsars.info Яндекс.Метрика