Али, рули! / Stuber (2019) BDRip 1080p от Талямбы | 60 fps | iTunes

Ответить на тему
Статистика раздачи [Обновить пиров]
Размер:  9,22 GB   |    Зарегистрирован:  14 дней   |    .torrent скачан:  6 раз
Раздают:  44  [  0 KB/s  ]   Подробная статистика пиров
 
   
 
 
Автор Сообщение

4udaki ®

Онлайн

Медали


Пол: Мужской

Стаж: 5 лет 5 месяцев

Наличие запрета:

Сообщений: 6354

Откуда: korsars.info

Отдача: 2 Mb/s

Загрузка: 20 Mb/s

Нажми

Создавать темы 23-Мар-2020 05:00

[Цитировать]

Информация о фильме
Название: Али, рули!
Оригинальное название: Stuber
Год выхода: 2019
Жанр: Боевик, триллер, комедия, криминал
Режиссер: Майкл Даус
В ролях:
Кумэйл Нанджиани, Дэйв Батиста, Мира Сорвино, Натали Моралес, Ико Уайс, Бетти Гилпин, Карен Гиллан, Джимми Татро, Стив Хоуи, Рене Моран
О фильме:
Скромный водитель Uber по имени Стю подбирает пассажира, который оказывается полицейским, идущим по следу жестокого убийцы. Таксист даже представить не мог, что теперь его ждет мучительное испытание, в ходе которого он будет отчаянно пытаться сохранить трезвый ум, жизнь и пятизвездочный рейтинг в приложении.

Страна: США
Студия: 20th Century Fox Film Corporation
Продолжительность: 1 ч. 33 м. 24 с.
Перевод: Дублированный | iTunes
Файл
Кодек: MPEG4/ISO/AVC/H.264
Качество: BDRip 1080p
Видео: 1920 x 800 (2.400) , 59.940 fps, 13.0 Mbps
Аудио 1: AC-3 | 5.1 | 48 kHz | 384 Кбит/сек | 16 bit | Дублированный | iTunes | Русский
Аудио 2: AC-3 | 2.0 | 48 kHz | 160 Кбит/сек | 16 bit | Дублированный | iTunes | Украинский
Аудио 3: AC-3 | 5.1 | 48 kHz | 640 Кбит/сек | 16 bit | English
Субтитры: Русские (Forced, full), украинские (Forced), английские

MediaInfo

Видео
Идентификатор : 1
Формат : AVC
Формат/Информация : Advanced Video Codec
Профиль формата : [email protected]
Параметр CABAC формата : Да
Параметр ReFrames формата : 5 кадров
Идентификатор кодека : V_MPEG4/ISO/AVC
Продолжительность : 1 ч. 33 м.
Битрейт : 13,0 Мбит/сек
Ширина : 1920 пикселей
Высота : 800 пикселей
Соотношение сторон : 2,40:1
Режим частоты кадров : Постоянный
Частота кадров : 59,940 (60000/1001) кадров/сек
Цветовое пространство : YUV
Субдискретизация насыщенности : 4:2:0
Битовая глубина : 8 бит
Тип развёртки : Прогрессивная
Бит/(Пиксели*Кадры) : 0.141
Размер потока : 8,45 Гбайт (92%)
Заголовок : Талямба
Библиотека кодирования : x264 core 146 r2538 121396c
Настройки программы : cabac=1 / ref=5 / deblock=1:-1:-1 / analyse=0x3:0x113 / me=umh / subme=9 / psy=1 / psy_rd=1.00:0.25 / mixed_ref=1 / me_range=32 / chroma_me=1 / trellis=2 / 8x8dct=1 / cqm=0 / deadzone=6,6 / fast_pskip=1 / chroma_qp_offset=-4 / threads=12 / lookahead_threads=2 / sliced_threads=0 / nr=0 / decimate=0 / interlaced=0 / bluray_compat=0 / constrained_intra=0 / bframes=8 / b_pyramid=2 / b_adapt=2 / b_bias=0 / direct=3 / weightb=1 / open_gop=0 / weightp=2 / keyint=599 / keyint_min=60 / scenecut=40 / intra_refresh=0 / rc_lookahead=60 / rc=2pass / mbtree=1 / bitrate=13000 / ratetol=1.0 / qcomp=0.80 / qpmin=0 / qpmax=69 / qpstep=4 / cplxblur=20.0 / qblur=0.5 / vbv_maxrate=50000 / vbv_bufsize=65000 / nal_hrd=none / filler=0 / ip_ratio=1.10 / aq=1:0.50
Язык : English
Default : Да
Forced : Нет
Аудио #1
Идентификатор : 2
Формат : AC-3
Формат/Информация : Audio Coding 3
Расширение режима : CM (complete main)
Параметр Endianness формата : Big
Идентификатор кодека : A_AC3
Продолжительность : 1 ч. 33 м.
Вид битрейта : Постоянный
Битрейт : 384 Кбит/сек
Каналы : 6 каналов
Расположение каналов : Front: L C R, Side: L R, LFE
Частота : 48,0 КГц
Частота кадров : 31,250 кадров/сек (1536 spf)
Битовая глубина : 16 бит
Метод сжатия : С потерями
Размер потока : 256 Мбайт (3%)
Заголовок : Дубляж (iTunes)
Язык : Russian
Default : Да
Forced : Да
Аудио #2
Идентификатор : 3
Формат : AC-3
Формат/Информация : Audio Coding 3
Расширение режима : CM (complete main)
Параметр Endianness формата : Big
Идентификатор кодека : A_AC3
Продолжительность : 1 ч. 33 м.
Вид битрейта : Постоянный
Битрейт : 160 Кбит/сек
Каналы : 2 канала
Расположение каналов : Front: L R
Частота : 48,0 КГц
Частота кадров : 31,250 кадров/сек (1536 spf)
Битовая глубина : 16 бит
Метод сжатия : С потерями
Размер потока : 107 Мбайт (1%)
Заголовок : Дубляж (iTunes)
Язык : Ukrainian
Default : Нет
Forced : Нет
Аудио #3
Идентификатор : 4
Формат : AC-3
Формат/Информация : Audio Coding 3
Расширение режима : CM (complete main)
Параметр Endianness формата : Big
Идентификатор кодека : A_AC3
Продолжительность : 1 ч. 33 м.
Вид битрейта : Постоянный
Битрейт : 640 Кбит/сек
Каналы : 6 каналов
Расположение каналов : Front: L C R, Side: L R, LFE
Частота : 48,0 КГц
Частота кадров : 31,250 кадров/сек (1536 spf)
Битовая глубина : 16 бит
Метод сжатия : С потерями
Задержка видео : 27 мс.
Размер потока : 428 Мбайт (5%)
Заголовок : Original
Язык : English
Default : Нет
Forced : Нет
Текст #1
Идентификатор : 5
Формат : UTF-8
Идентификатор кодека : S_TEXT/UTF8
Идентификатор кодека/Информация : UTF-8 Plain Text
Продолжительность : 1 ч. 27 м.
Битрейт : 1 бит/сек
Count of elements : 24
Размер потока : 876 байт (0%)
Заголовок : Forced
Язык : Russian
Default : Да
Forced : Да
Текст #2
Идентификатор : 6
Формат : UTF-8
Идентификатор кодека : S_TEXT/UTF8
Идентификатор кодека/Информация : UTF-8 Plain Text
Продолжительность : 1 ч. 32 м.
Битрейт : 114 бит/сек
Count of elements : 1819
Размер потока : 77,4 Кбайт (0%)
Заголовок : Full
Язык : Russian
Default : Нет
Forced : Нет
Текст #3
Идентификатор : 7
Формат : UTF-8
Идентификатор кодека : S_TEXT/UTF8
Идентификатор кодека/Информация : UTF-8 Plain Text
Продолжительность : 1 ч. 27 м.
Битрейт : 1 бит/сек
Count of elements : 20
Размер потока : 725 байт (0%)
Заголовок : Forced
Язык : Ukrainian
Default : Нет
Forced : Нет
Текст #4
Идентификатор : 8
Формат : UTF-8
Идентификатор кодека : S_TEXT/UTF8
Идентификатор кодека/Информация : UTF-8 Plain Text
Продолжительность : 1 ч. 26 м.
Битрейт : 83 бит/сек
Count of elements : 1795
Размер потока : 52,9 Кбайт (0%)
Заголовок : Full
Язык : English
Default : Нет
Forced : Нет
Меню
00:00:00.000 : en:Chapter 01
00:05:52.435 : en:Chapter 02
00:09:57.222 : en:Chapter 03
00:14:14.854 : en:Chapter 04
00:17:30.675 : en:Chapter 05
00:19:46.310 : en:Chapter 06
00:22:40.276 : en:Chapter 07
00:27:33.402 : en:Chapter 08
00:31:30.889 : en:Chapter 09
00:33:19.247 : en:Chapter 10
00:35:39.888 : en:Chapter 11
00:40:13.036 : en:Chapter 12
00:45:05.202 : en:Chapter 13
00:49:10.114 : en:Chapter 14
00:52:36.987 : en:Chapter 15
00:56:46.111 : en:Chapter 16
01:01:54.252 : en:Chapter 17
01:05:43.648 : en:Chapter 18
01:08:37.196 : en:Chapter 19
01:13:31.157 : en:Chapter 20
01:16:44.517 : en:Chapter 21
01:19:07.534 : en:Chapter 22
01:23:54.780 : en:Chapter 23
01:27:49.598 : en:Chapter 24

Скриншоты

[korsars.info].t27315.torrent 
Торрент: Зарегистрирован [ 2020-03-23 05:00 ] · 0AFD26BD9CB957CEA049C7CF332F271FC0315DB4

Скачать .torrent

Скачать .torrent

24 KB

Статус: проверено
.torrent скачан: 6 раз
Размер: 9,22 GB
Правила
Похожие темы

[Профиль] [ЛС]
Показать сообщения:    
Ответить на тему

Текущее время: 06-Апр 21:49

Часовой пояс: UTC + 4



Вы не можете начинать темы
Вы не можете отвечать на сообщения
Вы не можете редактировать свои сообщения
Вы не можете удалять свои сообщения
Вы не можете голосовать в опросах
Вы не можете прикреплять файлы к сообщениям
Вы можете скачивать файлы
Анализ сайта korsars.info Яндекс.Метрика