21 мост / 21 Bridges (2019) WEB-DL 1080p от селезень | iTunes

Ответить на тему
Статистика раздачи [Обновить пиров]
Размер:  10,85 GB   |    Зарегистрирован:  3 месяца 21 день   |    .torrent скачан:  0 раз
Раздают:  1213  [  0 KB/s  ]   Качают:  31  [  0 KB/s  ]   Подробная статистика пиров
 
   
 
 
Автор Сообщение

4udaki ®

Оффлайн

Медали


Пол: Мужской

Стаж: 5 лет 8 месяцев

Наличие запрета:

Сообщений: 7463

Откуда: korsars.info

Отдача: 2 Mb/s

Загрузка: 20 Mb/s

Нажми

Создавать темы 23-Мар-2020 05:00

[Цитировать]

Информация о фильме
Название: 21 мост
Оригинальное название: 21 Bridges
Год выхода: 2019
Жанр: Боевик, триллер, драма, криминал
Режиссер: Брайан Кирк
В ролях: Чэдвик Боузмэн, Сиенна Миллер, Тейлор Китч, Дж.К. Симмонс, Стэфан Джеймс, Кит Дэвид, Александр Сиддиг, Луис Канселми, Виктория Картахена, Гари Карр

О фильме: Он охотится на преступников, которые совершили на Манхэттене дерзкое ограбление, оставив после себя 8 мертвых полицейских. А продажные копы тем временем охотятся на него, пытаясь подставить. Но преступникам не скрыться, так как первый раз в истории Нью-Йорка полиция перекрыла все выходы с острова, в том числе 21 мост.
Страна: США
Студия: AGBO, Huayi Brothers, MWM Studios
Продолжительность: 01:39:57
Перевод: Дублированный | iTunes
Качество: BDRip 1080p
Видео: MPEG-4 AVC, 1920x804, 14.5 Mbit/s, 23.976 fps
Аудио #01: 48 kHz, AC3, 5.1, 384 Kbps | iTunes | RUS |
Аудио #02: 48 kHz, AC3, 5.1, 640 Kbps | Оригинал | ENG |
Субтитры: Английские

Скриншоты

MI

General
Unique ID : 148927024206567203148748999935153452804 (0x700A4D320A17D6E5AEE166FB954CB704)
Complete name : E:Video11121.Bridges.2019.BDRip.1080p.seleZen.mkv
Format : Matroska
Format version : Version 4
File size : 10.8 GiB
Duration : 1 h 39 min
Overall bit rate : 15.5 Mb/s
Movie name : 21 Bridges 2019 from селезень
Encoded date : UTC 2020-02-07 18:10:21
Writing application : mkvmerge v40.0.0 ('Old Town Road + Pony') 64-bit
Writing library : libebml v1.3.9 + libmatroska v1.5.2
Video
ID : 1
Format : AVC
Format/Info : Advanced Video Codec
Format profile : [email protected]
Format settings : CABAC / 4 Ref Frames
Format settings, CABAC : Yes
Format settings, Reference : 4 frames
Codec ID : V_MPEG4/ISO/AVC
Duration : 1 h 39 min
Bit rate : 14.5 Mb/s
Width : 1 920 pixels
Height : 804 pixels
Display aspect ratio : 2.40:1
Frame rate mode : Constant
Frame rate : 23.976 (24000/1001) FPS
Color space : YUV
Chroma subsampling : 4:2:0
Bit depth : 8 bits
Scan type : Progressive
Bits/(Pixel*Frame) : 0.392
Stream size : 10.1 GiB (93%)
Title : CHD
Writing library : x264 core 157 r2867+150 7e91e0e t_mod_Custom_2 [[email protected] X86_64]
Encoding settings : cabac=1 / ref=4 / deblock=1:-3:-3 / analyse=0x3:0x133 / me=umh / subme=11 / psy=1 / fade_compensate=0.00 / psy_rd=0.90:0.10 / mixed_ref=1 / me_range=64 / chroma_me=1 / trellis=2 / 8x8dct=1 / cqm=0 / deadzone=21,11 / fast_pskip=0 / chroma_qp_offset=-4 / threads=25 / lookahead_threads=4 / sliced_threads=0 / nr=0 / decimate=1 / interlaced=0 / bluray_compat=0 / constrained_intra=0 / fgo=0 / bframes=8 / b_pyramid=2 / b_adapt=2 / b_bias=0 / direct=3 / weightb=1 / open_gop=0 / weightp=2 / keyint=250 / keyint_min=23 / scenecut=40 / intra_refresh=0 / rc_lookahead=60 / rc=crf / mbtree=0 / crf=18.0000 / qcomp=0.70 / qpmin=0:0:0 / qpmax=69:69:69 / qpstep=4 / vbv_maxrate=35000 / vbv_bufsize=35000 / crf_max=0.0 / nal_hrd=none / filler=0 / ip_ratio=1.40 / pb_ratio=1.30 / aq=3:1.00 / aq-sensitivity=10.00 / aq-factor=1.00:1.00:1.00 / aq2=0 / aq3=0
Language : English
Default : Yes
Forced : No
Audio #1
ID : 2
Format : AC-3
Format/Info : Audio Coding 3
Commercial name : Dolby Digital
Codec ID : A_AC3
Duration : 1 h 39 min
Bit rate mode : Constant
Bit rate : 384 kb/s
Channel(s) : 6 channels
Channel layout : L R C LFE Ls Rs
Sampling rate : 48.0 kHz
Frame rate : 31.250 FPS (1536 SPF)
Compression mode : Lossy
Stream size : 275 MiB (2%)
Title : iTunes
Language : Russian
Service kind : Complete Main
Default : Yes
Forced : Yes
Audio #2
ID : 3
Format : AC-3
Format/Info : Audio Coding 3
Commercial name : Dolby Digital
Codec ID : A_AC3
Duration : 1 h 39 min
Bit rate mode : Constant
Bit rate : 640 kb/s
Channel(s) : 6 channels
Channel layout : L R C LFE Ls Rs
Sampling rate : 48.0 kHz
Frame rate : 31.250 FPS (1536 SPF)
Compression mode : Lossy
Stream size : 458 MiB (4%)
Title : Original
Language : English
Service kind : Complete Main
Default : No
Forced : No
Text #1
ID : 4
Format : UTF-8
Codec ID : S_TEXT/UTF8
Codec ID/Info : UTF-8 Plain Text
Duration : 1 h 29 min
Bit rate : 52 b/s
Count of elements : 1116
Stream size : 34.5 KiB (0%)
Title : Full
Language : English
Default : No
Forced : No
Text #2
ID : 5
Format : UTF-8
Codec ID : S_TEXT/UTF8
Codec ID/Info : UTF-8 Plain Text
Duration : 1 h 30 min
Bit rate : 56 b/s
Count of elements : 1249
Stream size : 37.6 KiB (0%)
Title : SDH
Language : English
Default : No
Forced : No
Menu
00:00:00.000 : :Chapter 01
00:03:16.196 : :Chapter 02
00:07:48.510 : :Chapter 03
00:11:59.344 : :Chapter 04
00:16:54.722 : :Chapter 05
00:22:33.143 : :Chapter 06
00:30:54.561 : :Chapter 07
00:34:50.046 : :Chapter 08
00:40:16.414 : :Chapter 09
00:44:39.719 : :Chapter 10
00:50:54.718 : :Chapter 11
00:54:04.408 : :Chapter 12
00:58:52.320 : :Chapter 13
01:02:08.600 : :Chapter 14
01:06:19.601 : :Chapter 15
01:10:27.557 : :Chapter 16
01:16:19.617 : :Chapter 17
01:19:19.755 : :Chapter 18
01:25:15.110 : :Chapter 19
01:32:34.382 : :Chapter 20
Релиз от:
[korsars.info].t27317.torrent 
Торрент: Зарегистрирован [ 2020-03-23 05:00 ] · 3D142276B27A970D3073ED62EC44D7B0EB42BEF7

Скачать .torrent

Размер .torrent файла 15 KB

Статус: проверено
.torrent скачан: 0 раз
Размер: 10,85 GB
Правила
Похожие темы

[Профиль] [ЛС]
Показать сообщения:    
Ответить на тему

Текущее время: 14-Июл 04:10

Часовой пояс: UTC + 4



Вы не можете начинать темы
Вы не можете отвечать на сообщения
Вы не можете редактировать свои сообщения
Вы не можете удалять свои сообщения
Вы не можете голосовать в опросах
Вы не можете прикреплять файлы к сообщениям
Вы можете скачивать файлы
Анализ сайта korsars.info Яндекс.Метрика