Паразиты / Parasite / Gisaengchung (2019) HDRip | Сербин

Ответить на тему
Статистика раздачи [Обновить пиров]
Размер:  1,46 GB   |    Зарегистрирован:  14 дней   |    .torrent скачан:  0 раз
Раздают:  786  [  0 KB/s  ]   Качают:  21  [  0 KB/s  ]   Подробная статистика пиров
 
   
 
 
Автор Сообщение

4udaki ®

Онлайн

Медали


Пол: Мужской

Стаж: 5 лет 5 месяцев

Наличие запрета:

Сообщений: 6354

Откуда: korsars.info

Отдача: 2 Mb/s

Загрузка: 20 Mb/s

Нажми

Создавать темы 23-Мар-2020 13:00

[Цитировать]

Название: Паразиты
Оригинальное название: Parasite / Gisaengchung
Год выхода: 2019
Жанр: Триллер, драма, криминал
Режиссер: Чжун Хо Пон
В ролях: Кан Хо Сон, Сон Гён Ли, Ё Чжон Чо, У Шик Чхве, Со Дам Пак, Хе Джин Чан, Сын Мин Хён, Хён Джун Чон, Джон Ын Ли, Со Чжун Пак
О фильме: Обычное корейское семейство жизнь не балует. Приходится жить в сыром грязном полуподвале, воровать интернет у соседей и перебиваться случайными подработками. Однажды друг сына семейства, уезжая на стажировку за границу, предлагает тому заменить его и поработать репетитором у старшеклассницы в богатой семье Пак. Подделав диплом о высшем образовании, парень отправляется в шикарный дизайнерский особняк и производит на хозяйку дома хорошее впечатление. Тут же ему в голову приходит необычный план по трудоустройству сестры.

Страна: Южная Корея
Студия: Barunson E&A, CJ E&M Film Financing & Investment Entertainment & Comics, CJ Entertainment
Продолжительность: 02:12:00
Перевод: Авторский (одноголосый, закадровый) Юрий Сербин
Качество: HDRip
Видео: XviD, 1190 Кбит/с, 720x304, 23.976 кадр/с
Аудио: AC3, 6 ch, 384 Кбит/с

MediaInfo:

General
Complete name : E:ФильмыПаразиты.2019.HDRip.АП.Сербин.avi
Format : AVI
Format/Info : Audio Video Interleave
File size : 1.46 GiB
Duration : 2 h 12 min
Overall bit rate : 1 583 kb/s
Movie name : P
Writing application : VirtualDubMod 1.5.10.2 (build 2542/release)
Writing library : VirtualDubMod build 2542/release
Original source form/Name : K
Video
ID : 0
Format : MPEG-4 Visual
Format profile : Advanced [email protected]
Format settings : BVOP2
Format settings, BVOP : 2
Format settings, QPel : No
Format settings, GMC : No warppoints
Format settings, Matrix : Default (MPEG)
Codec ID : XVID
Codec ID/Hint : XviD
Duration : 2 h 12 min
Bit rate : 1 190 kb/s
Width : 720 pixels
Height : 304 pixels
Display aspect ratio : 2.35:1
Frame rate : 23.976 (24000/1001) FPS
Color space : YUV
Chroma subsampling : 4:2:0
Bit depth : 8 bits
Scan type : Progressive
Compression mode : Lossy
Bits/(Pixel*Frame) : 0.227
Stream size : 1.10 GiB (75%)
Writing library : XviD 1.2.1 (UTC 2008-12-04)
Audio
ID : 1
Format : AC-3
Format/Info : Audio Coding 3
Commercial name : Dolby Digital
Codec ID : 2000
Duration : 2 h 12 min
Bit rate mode : Constant
Bit rate : 384 kb/s
Channel(s) : 6 channels
Channel layout : L R C LFE Ls Rs
Sampling rate : 48.0 kHz
Frame rate : 31.250 FPS (1536 SPF)
Compression mode : Lossy
Stream size : 363 MiB (24%)
Alignment : Split across interleaves
Interleave, duration : 42 ms (1.00 video frame)
Interleave, preload duration : 500 ms
Service kind : Complete Main

Награды и номинации:

Оскар, 2020 год
Победитель (4):
Лучший фильм
Лучший режиссер (Пон Джун-хо)
Лучший сценарий
Лучший международный фильм
Номинации (2):
Лучший монтаж
Лучшая работа художника-постановщика
Британская академия, 2020 год
Победитель (2):
Лучший оригинальный сценарий
Лучший фильм на иностранном языке
Номинации (2):
Лучший фильм
Лучший режиссер (Пон Джун-хо)
Золотой глобус, 2020 год
Победитель (1):
Лучший фильм на иностранном языке
Номинации (2):
Лучший режиссер (Пон Джун-хо)
Лучший сценарий
Каннский кинофестиваль, 2019 год
Победитель (1):
Золотая пальмовая ветвь
Сан-Себастьян, 2019 год
Номинации (1):
Премия международной ассоциации кинокритиков (ФИПРЕССИ) - лучший фильм года

Интересно:

► Съёмочный период фильма — с 18 мая по 19 сентября 2018 года.
► Ки-джон (Пак Со-дам) подделывает брату документы университета Ёнсе — одного из трёх самых престижных вузов Южной Кореи. Этот университет окончил режиссёр фильма Пон Джун-хо.
► После премьеры на Каннском кинофестивале фильму устроили стоячую овацию на 15 минут.
► Первый южнокорейский фильм, получивший высшую награду Каннского кинофестиваля. Это произошло в год 100-летия корейского кино.
► До премьеры на родине права на показ картины были проданы в 192 страны, что стало рекордом для южнокорейского фильма.
► Для роли в фильме актриса Чан Хе-джин поправилась на 15 кг.
► Лента стала самым кассовым южнокорейским фильмом в истории российского проката и самым кассовым иностранным фильмом в североамериканском прокате 2019 года.
► Режиссер Пон Джун-хо дал указание актёру Чхве У-щику немного похудеть для роли, чтобы его персонаж Ки-у выглядел младше и казался уязвимым.
► Чтобы молодые актёры Чхве У-щик и Пак Со-дам лучше вжились в роли, на протяжении всего съёмочного процесса Сон Кан-хо разрешил им называть себя папой, хотя такая фамильярность по отношению к старшему коллеге в корейском обществе считается неприемлемой.
► В интервью режиссёр признался, что основным источником вдохновения для создания фильма послужила картина «Служанка» (1960) Ким Ги-ёна.
► Первый южнокорейский фильм, номинированный на премию «Золотой глобус» и получивший её в категории «Лучший фильм на иностранном языке», первый иностранный фильм, получивший премию Гильдии актёров США в номинации «Лучший актерский состав».
► Работая над сценарием, режиссёр и сценарист Пон Джун-хо выбрал репетиторство в качестве работы для персонажа Чхве У-щика, потому что, по его словам, это единственная ситуация, в которой могут пересечься люди из настолько разных слоёв общества современной Южной Кореи.
► Существует официальная чёрно-белая версия картины.
► В сцене разговора между отцом и сыном в спортивном зале исполнитель роли Ки-у (Чхве У-щик) заплакал, хоть это и не было предусмотрено сценарием.
► Чтобы сделать воду коричневой для съёмок сцены потопа в подвале, её загрязнили косметической глиной.

Скриншоты:

[korsars.info].t27323.torrent 
Торрент: Зарегистрирован [ 2020-03-23 13:00 ] · 2F1BD78AA1B6FE9A26948651E8FD4154824B6EDF

Скачать .torrent

Скачать .torrent

16 KB

Статус: проверено
.torrent скачан: 0 раз
Размер: 1,46 GB
Правила
Похожие темы

[Профиль] [ЛС]
Показать сообщения:    
Ответить на тему

Текущее время: 06-Апр 22:30

Часовой пояс: UTC + 4



Вы не можете начинать темы
Вы не можете отвечать на сообщения
Вы не можете редактировать свои сообщения
Вы не можете удалять свои сообщения
Вы не можете голосовать в опросах
Вы не можете прикреплять файлы к сообщениям
Вы можете скачивать файлы
Анализ сайта korsars.info Яндекс.Метрика