Волк с Уолл-стрит / The Wolf of Wall Street (2013) BDRip | Гоблин

Ответить на тему
Статистика раздачи [Обновить пиров]
Размер:  2,94 GB   |    Зарегистрирован:  13 дней   |    .torrent скачан:  2 раза
Раздают:  152  [  0 KB/s  ]   Качают:  7  [  0 KB/s  ]   Подробная статистика пиров
 
   
 
 
Автор Сообщение

4udaki ®

Онлайн

Медали


Пол: Мужской

Стаж: 5 лет 5 месяцев

Наличие запрета:

Сообщений: 6354

Откуда: korsars.info

Отдача: 2 Mb/s

Загрузка: 20 Mb/s

Нажми

Создавать темы 24-Мар-2020 13:00

[Цитировать]

Название: Волк с Уолл-стрит
Оригинальное название: The Wolf of Wall Street
Год выхода: 2013
Жанр: драма, комедия, криминал, биография
Режиссер: Мартин Скорсезе
В ролях: Леонардо ДиКаприо, Джона Хилл, Марго Робби, Мэттью МакКонахи, Кайл Чандлер, Роб Райнер, Джон Фавро, Жан Дюжарден, Ши Уигхэм, Спайк Джонз, Джон Бернтал, Джоанна Ламли, Кристин Милиоти, Кристин Эберсоул, Катарина Кэс, П.Дж. Бирн, Кеннет Чои
О фильме: 1987 год. Джордан Белфорт становится брокером в успешном инвестиционном банке. Вскоре банк закрывается после внезапного обвала индекса Доу-Джонса. По совету жены Терезы Джордан устраивается в небольшое заведение, занимающееся мелкими акциями. Его настойчивый стиль общения с клиентами и врождённая харизма быстро даёт свои плоды. Он знакомится с соседом по дому Донни, торговцем, который сразу находит общий язык с Джорданом и решает открыть с ним собственную фирму. В качестве сотрудников они нанимают нескольких друзей Белфорта, его отца Макса и называют компанию «Стрэттон Оукмонт». В свободное от работы время Джордан прожигает жизнь: лавирует от одной вечеринки к другой, вступает в сексуальные отношения с проститутками, употребляет множество наркотических препаратов, в том числе кокаин и кваалюд. Однажды наступает момент, когда быстрым обогащением Белфорта начинает интересоваться агент ФБР…

Страна: Великобритания, США, Исландия
Студия: Paramount Pictures, Marv Films, Vaughn Productions
Продолжительность: 02:59:52
Перевод: Авторский (одноголосый, закадровый) Дмитрий Пучков aka Goblin [Ненорматив]
Субтитры: нет
Качество: BDRip
Видео: XviD, 2135 Кбит/с, 720x304, 23.976 кадр/с
Аудио: AC3, 2 ch, 192 Кбит/с
Исходник звуковой дорожки предоставлен пользователем Spineless

MediaInfo

General
Complete name : E:ФильмыВолк.с.Уолл-Стрит.2013.BDRip.АП.Пучков.avi
Format : AVI
Format/Info : Audio Video Interleave
Format profile : OpenDML
File size : 2.94 GiB
Duration : 2 h 59 min
Overall bit rate : 2 337 kb/s
Video
ID : 0
Format : MPEG-4 Visual
Format profile : Advanced [email protected]
Format settings : BVOP2
Format settings, BVOP : 2
Format settings, QPel : No
Format settings, GMC : No warppoints
Format settings, Matrix : Default (H.263)
Codec ID : XVID
Codec ID/Hint : XviD
Duration : 2 h 59 min
Bit rate : 2 135 kb/s
Width : 720 pixels
Height : 304 pixels
Display aspect ratio : 2.35:1
Frame rate : 23.976 (24000/1001) FPS
Color space : YUV
Chroma subsampling : 4:2:0
Bit depth : 8 bits
Scan type : Progressive
Compression mode : Lossy
Bits/(Pixel*Frame) : 0.407
Stream size : 2.68 GiB (91%)
Writing library : XviD 1.2.1 (UTC 2008-12-04)
Audio
ID : 1
Format : AC-3
Format/Info : Audio Coding 3
Commercial name : Dolby Digital
Codec ID : 2000
Duration : 2 h 59 min
Bit rate mode : Constant
Bit rate : 192 kb/s
Channel(s) : 2 channels
Channel layout : L R
Sampling rate : 48.0 kHz
Frame rate : 31.250 FPS (1536 SPF)
Compression mode : Lossy
Stream size : 246 MiB (8%)
Alignment : Split across interleaves
Interleave, duration : 42 ms (1.00 video frame)
Interleave, preload duration : 500 ms
Service kind : Complete Main

Скриншоты

[korsars.info].t27353.torrent 
Торрент: Зарегистрирован [ 2020-03-24 13:00 ] · 4CE55D3E77D524C1861C7D727181BB328B01C743

Скачать .torrent

Скачать .torrent

16 KB

Статус: проверено
.torrent скачан: 2 раз
Размер: 2,94 GB
Правила
Похожие темы

[Профиль] [ЛС]
Показать сообщения:    
Ответить на тему

Текущее время: 06-Апр 22:35

Часовой пояс: UTC + 4



Вы не можете начинать темы
Вы не можете отвечать на сообщения
Вы не можете редактировать свои сообщения
Вы не можете удалять свои сообщения
Вы не можете голосовать в опросах
Вы не можете прикреплять файлы к сообщениям
Вы можете скачивать файлы
Анализ сайта korsars.info Яндекс.Метрика