Жадность / Greed (2019) WEB-DLRi | iTunes

Ответить на тему
Статистика раздачи [Обновить пиров]
Размер:  744 MB   |    Зарегистрирован:  13 дней   |    .torrent скачан:  0 раз
Раздают:  110  [  0 KB/s  ]   Качают:  12  [  0 KB/s  ]   Подробная статистика пиров
 
   
 
 
Автор Сообщение

4udaki ®

Оффлайн

Медали


Пол: Мужской

Стаж: 5 лет 5 месяцев

Наличие запрета:

Сообщений: 6355

Откуда: korsars.info

Отдача: 2 Mb/s

Загрузка: 20 Mb/s

Нажми

Создавать темы 24-Мар-2020 21:00

[Цитировать]

Информация о фильме
Название: Жадность
Оригинальное название: Greed
Год выхода: 2019
Жанр: драма, комедия
Режиссер: Майкл Уинтерботтом
В ролях: Стив Куган, Айла Фишер, Ширли Хендерсон, Дэвид Митчелл, Эйса Баттерфилд, Динита Гохил, Софи Куксон, Джейми Блэкли, Шанина Шейк, Джонни Свит
О фильме: Миллиардер, владелец самых модных брендов одежды, сделавший состояние с помощью дешевой рабочей силы и авантюрных манипуляций, с помпой отмечает 60-летие на греческом острове Миконос, где собирается весь мировой бомонд. Какие сюрпризы приготовил своим звездным гостям циничный юбиляр?..

Выпущено: Великобритания
Студия: Film4, Revolution Films, Sony Pictures International Productions
Продолжительность: 01:39:54
Озвучивание: Дублированный | iTunes
Файл
Формат: AVI
Качество: WEB-DLRip
Видео: 688x288 (2.39:1), 25 fps, XviD build 73 ~903 kbps avg, 0.18 bit/pixel
Аудио: 48 kHz, MPEG Layer 3, 2 ch, ~128.00 kbps avg

MediaInfo:

Общее
Полное имя : C:Greed.2019.D.WEB-DLRip.740.mb.avi
Формат : AVI
Формат/Информация : Audio Video Interleave
Размер файла : 744 Мбайт
Продолжительность : 1 ч. 39 м.
Общий поток : 1041 Кбит/сек
Программа кодирования : VirtualDubMod 1.5.10.3 | (build 2550/release)
Библиотека кодирования : VirtualDubMod build 2550/release
Видео
Идентификатор : 0
Формат : MPEG-4 Visual
Профиль формата : Advanced [email protected]
Параметр BVOP формата : 1
Параметр QPel формата : Нет
Параметр GMC формата : Без точки перехода
Параметр матрицы формата : Выборочная
Идентификатор кодека : XVID
Идентификатор кодека/Подсказка : XviD
Продолжительность : 1 ч. 39 м.
Битрейт : 904 Кбит/сек
Ширина : 688 пикселей
Высота : 288 пикселей
Соотношение сторон : 2,40:1
Частота кадров : 25,000 кадров/сек
Цветовое пространство : YUV
Субдискретизация насыщенности : 4:2:0
Битовая глубина : 8 бит
Тип развёртки : Прогрессивная
Метод сжатия : С потерями
Бит/(Пиксели*Кадры) : 0.182
Размер потока : 646 Мбайт (87%)
Библиотека кодирования : XviD 73
Аудио
Идентификатор : 1
Формат : MPEG Audio
Версия формата : Version 1
Профиль формата : Layer 3
Идентификатор кодека : 55
Идентификатор кодека/Подсказка : MP3
Продолжительность : 1 ч. 39 м.
Вид битрейта : Постоянный
Битрейт : 128 Кбит/сек
Каналы : 2 канала
Частота : 48,0 КГц
Метод сжатия : С потерями
Размер потока : 91,5 Мбайт (12%)
Выравнивание : Соединение по промежуткам
Продолжительность промежутка : 40 мс. (1,00 видеокадр)
Время предзагрузки промежутка : 504 мс.
Библиотека кодирования : LAME3.99r
Настройки программы : -m s -V 4 -q 2 -lowpass 17 -b 128

Скриншоты

[korsars.info].t27365.torrent 
Торрент: Зарегистрирован [ 2020-03-24 21:00 ] · D7E6C9EE33BDB3D66E95AFA46D3E877B22352E85

Скачать .torrent

Скачать .torrent

15 KB

Статус: проверено
.torrent скачан: 0 раз
Размер: 744 MB
Правила
Похожие темы

[Профиль] [ЛС]
Показать сообщения:    
Ответить на тему

Текущее время: 06-Апр 21:00

Часовой пояс: UTC + 4



Вы не можете начинать темы
Вы не можете отвечать на сообщения
Вы не можете редактировать свои сообщения
Вы не можете удалять свои сообщения
Вы не можете голосовать в опросах
Вы не можете прикреплять файлы к сообщениям
Вы можете скачивать файлы
Анализ сайта korsars.info Яндекс.Метрика