Гринч – похититель Рождества / How the Grinch Stole Christmas (2000) BDRip-AVC от OlLanDGroup | Remastered | Лицензия

Ответить на тему
Статистика раздачи [Обновить пиров]
Размер:  744 MB   |    Зарегистрирован:  9 дней   |    .torrent скачан:  1 раз
Раздают:  50  [  0 KB/s  ]   Качают:  9  [  0 KB/s  ]   Подробная статистика пиров
 
   
 
 
Автор Сообщение

4udaki ®

Оффлайн

Медали


Пол: Мужской

Стаж: 5 лет 5 месяцев

Наличие запрета:

Сообщений: 6329

Откуда: korsars.info

Отдача: 2 Mb/s

Загрузка: 20 Mb/s

Нажми

Создавать темы 25-Мар-2020 01:00

[Цитировать]

Информация о фильме
Название: Гринч - похититель Рождества
Оригинальное название: How the Grinch Stole Christmas
Год выпуска: 2000
Жанр: Комедия, фэнтези, семейный, рождество, экранизация
Режиссер: Рон Ховард
В ролях: Джим Керри, Тейлор Момсен, Джеффри Тэмбор, Кристин Барански, Билл Ирвин, Молли Шеннон, Клинт Ховард, Джош Райан Эванс, Минди Стерлинг, Рэйчел Уинфри, Рэнс Ховард, Джереми Ховард, Ти-Джей Тайн, Лэйси Кол, Надя Пионилла, Джим Мескимен, Майкл Дален, Дэвид Костабайл, Мэри Стейн, Джеймс Ритц, Дип Рой, Джессика Сара, Мэйсон Лучеро, Бен Букбайндер, Михаэлла Галло, Ландри Олбрайт, Рейд Кирхенбауэр, Ребекка Чэс, Сюзанн Крулл, Стив Кехела, Лилиас Уайт, Рэйн Прайор
О фильме:
Жил-был в городе Ктограде человечек, и звали его - Гринч. Был он весь зеленый и волосатый, никто его не любил. Обиделся Гринч на ктовичей и ушел жить на одинокую, обдуваемую всеми ветрами гору. Сидел там в своей пещере и злился на весь свет. Больше всего Гринч ненавидел Рождество. В то время, как все население Ктограда веселилось от души, барометр и без того всегда плохого настроения Гринча показывал нечто ужасное.

Страна: Германия, США
Студия: Universal Pictures, Imagine Entertainment, LUNI Productions GmbH and Company KG
Продолжительность: 01:44:56
Перевод: Дублированный | BD CEE
Файл
Формат: MKV
Качество: BDRip-AVC
Источник: |How the Grinch Stole Christmas (2000) [Remastered] Blu-ray CEE 1080p AVC DTS 5.1|
Видео: 720x390 (1.85:1), 23.976 fps, x264 ~927 kbps avg, 0.138 bit/pixel
Звук: 48 kHz, HE-AAC, 2 ch, ~64 kbps avg | RUS
Субтитры: Русские (Full, SDH), Английские (Full, SDH)

MediaInfo:

General
Unique ID : 170289878159228495200599133433504529530 (0x801CA336F4631352AF0BD46C2E98FC7A)
Complete name : D:OlLanDGroupHow.the.Grinch.Stole.Christmas.2000.BDRip(AVC).Remastered.745Mb.OlLanDGroup.mkv
Format : Matroska
Format version : Version 4
File size : 744 MiB
Duration : 1 h 44 min
Overall bit rate : 992 kb/s
Movie name : How.the.Grinch.Stole.Christmas.2000.BDRip(AVC).Remastered.745Mb.OlLanDGroup#Skandar#
Encoded date : UTC 2019-12-23 13:00:56
Writing application : mkvmerge v31.0.0 ('Dolores In A Shoestand') 64-bit
Writing library : libebml v1.3.6 + libmatroska v1.4.9
Video
ID : 1
Format : AVC
Format/Info : Advanced Video Codec
Format profile : [email protected]
Format settings : CABAC / 10 Ref Frames
Format settings, CABAC : Yes
Format settings, ReFrames : 10 frames
Codec ID : V_MPEG4/ISO/AVC
Duration : 1 h 44 min
Bit rate : 927 kb/s
Width : 720 pixels
Height : 390 pixels
Display aspect ratio : 1.85:1
Frame rate mode : Constant
Frame rate : 23.976 (24000/1001) FPS
Color space : YUV
Chroma subsampling : 4:2:0
Bit depth : 8 bits
Scan type : Progressive
Bits/(Pixel*Frame) : 0.138
Stream size : 695 MiB (93%)
Title : How.the.Grinch.Stole.Christmas.2000.BDRip(AVC).Remastered.745Mb.OlLanDGroup#Skandar#
Writing library : x264 core 146 r2538 121396c
Encoding settings : cabac=1 / ref=10 / deblock=1:-3:-3 / analyse=0x3:0x133 / me=umh / subme=11 / psy=1 / psy_rd=0.97:0.05 / mixed_ref=1 / me_range=48 / chroma_me=1 / trellis=2 / 8x8dct=1 / cqm=0 / deadzone=21,11 / fast_pskip=0 / chroma_qp_offset=-3 / threads=6 / lookahead_threads=1 / sliced_threads=0 / nr=0 / decimate=0 / interlaced=0 / bluray_compat=0 / constrained_intra=0 / bframes=11 / b_pyramid=2 / b_adapt=2 / b_bias=0 / direct=3 / weightb=1 / open_gop=0 / weightp=2 / keyint=240 / keyint_min=23 / scenecut=40 / intra_refresh=0 / rc_lookahead=40 / rc=2pass / mbtree=0 / bitrate=927 / ratetol=1.0 / qcomp=0.60 / qpmin=0 / qpmax=69 / qpstep=4 / cplxblur=20.0 / qblur=0.5 / vbv_maxrate=50000 / vbv_bufsize=62500 / nal_hrd=none / filler=0 / ip_ratio=1.40 / pb_ratio=1.30 / aq=1:1.00
Language : English
Default : Yes
Forced : No
Audio
ID : 2
Format : AAC LC SBR
Format/Info : Advanced Audio Codec Low Complexity with Spectral Band Replication
Commercial name : HE-AAC
Format settings : Explicit
Codec ID : A_AAC-2
Duration : 1 h 44 min
Bit rate : 64.0 kb/s
Channel(s) : 2 channels
Channel layout : L R
Sampling rate : 48.0 kHz
Frame rate : 23.438 FPS (2048 SPF)
Compression mode : Lossy
Delay relative to video : 31 ms
Stream size : 48.0 MiB (6%)
Title : DUB | BD CEE
Language : Russian
Default : Yes
Forced : No
Text #1
ID : 3
Format : UTF-8
Codec ID : S_TEXT/UTF8
Codec ID/Info : UTF-8 Plain Text
Duration : 1 h 35 min
Bit rate : 60 b/s
Count of elements : 1046
Stream size : 42.3 KiB (0%)
Language : Russian
Default : No
Forced : No
Text #2
ID : 4
Format : UTF-8
Codec ID : S_TEXT/UTF8
Codec ID/Info : UTF-8 Plain Text
Duration : 1 h 43 min
Bit rate : 119 b/s
Count of elements : 1537
Stream size : 91.0 KiB (0%)
Title : SDH
Language : Russian
Default : No
Forced : No
Text #3
ID : 5
Format : UTF-8
Codec ID : S_TEXT/UTF8
Codec ID/Info : UTF-8 Plain Text
Duration : 1 h 43 min
Bit rate : 50 b/s
Count of elements : 1205
Stream size : 38.2 KiB (0%)
Language : English
Default : No
Forced : No
Text #4
ID : 6
Format : UTF-8
Codec ID : S_TEXT/UTF8
Codec ID/Info : UTF-8 Plain Text
Duration : 1 h 43 min
Bit rate : 55 b/s
Count of elements : 1413
Stream size : 42.3 KiB (0%)
Title : SDH
Language : English
Default : No
Forced : No
Menu
00:00:00.000 : :1. A Whoville Christmas
00:03:38.383 : :2. Meet the Grinch
00:10:26.792 : :3. Condy Lou's Savior
00:17:50.818 : :4. Christmas, Why Can't I Find You?
00:19:21.951 : :5. No Place Like Home
00:23:36.498 : :6. The Grinch's Story
00:33:29.089 : :7. Cindy Lou's Candidate
00:36:54.795 : be. The Invitation
00:44:05.434 : :9. Second Thoughts
00:47:12.788 : :10. The Holiday Cheermeister
00:52:58.215 : :11. The Grinch's Revenge
00:59:39.117 : :12. A Wonderful, Awful Idea
01:02:39.672 : :13. You're a Mean One, Mr. Grinch
01:07:04.353 : :14. Grinchy Claus
01:14:36.637 : :15. To Take Every Present
01:18:12.354 : :16. Christmas Destroyed
01:22:01.041 : :17. A Change of Heart
01:27:18.065 : :18. To Save Cindy Lou
01:30:21.623 : :19. Merry Christmas, Mr. Grinch
01:37:52.448 : :20. End Titles

Скриншоты

Релиз от:
[korsars.info].t27369.torrent 
Торрент: Зарегистрирован [ 2020-03-25 01:00 ] · 568EAF8E5A3385834F63D1E3E89E064AC526E692

Скачать .torrent

Скачать .torrent

16 KB

Статус: проверено
.torrent скачан: 1 раз
Размер: 744 MB
Правила
Похожие темы

[Профиль] [ЛС]
Показать сообщения:    
Ответить на тему

Текущее время: 03-Апр 10:58

Часовой пояс: UTC + 4



Вы не можете начинать темы
Вы не можете отвечать на сообщения
Вы не можете редактировать свои сообщения
Вы не можете удалять свои сообщения
Вы не можете голосовать в опросах
Вы не можете прикреплять файлы к сообщениям
Вы можете скачивать файлы
Анализ сайта korsars.info Яндекс.Метрика