Милая / Sweetheart (2019) WEB-DL 1080p | LakeFilms

Ответить на тему
Статистика раздачи [Обновить пиров]
Размер:  2,85 GB   |    Зарегистрирован:  12 дней   |    .torrent скачан:  0 раз
Раздают:  52  [  0 KB/s  ]   Качают:  7  [  0 KB/s  ]   Подробная статистика пиров
 
   
 
 
Автор Сообщение

4udaki ®

Оффлайн

Медали


Пол: Мужской

Стаж: 5 лет 5 месяцев

Наличие запрета:

Сообщений: 6355

Откуда: korsars.info

Отдача: 2 Mb/s

Загрузка: 20 Mb/s

Нажми

Создавать темы 25-Мар-2020 09:00

[Цитировать]

Название: Милая
Оригинальное название: Sweetheart
Год выпуска: 2019
Жанр: Ужасы, триллер
Выпущено: США, Blumhouse Productions
Режиссер: Джастин Диллард
В ролях: Кирси Клемонс, Эмори Коэн, Ханна Мэнгэн Лоуренс, Эндрю Кроуфорд, Бенедикт Сэмюэл
О фильме: Потерпев крушение в океане, молодая женщина Дженн выбирается на небольшой остров. К берегу также прибивает одного из её друзей, но вскоре тяжелораненый парень умирает. Похоронив друга и кое-как обустроившись на острове, Дженн вскоре сталкивается с непредвиденной угрозой — оказывается, из моря по ночам выходит плотоядное чудовище.

Техданные
Качество: WEB-DL (1080p)
Видео: MPEG-4 AVC, ~ 4 534 kb/s, 1916x798, 23.976 FPS
Аудио: AC3, 2 ch, 384 Кбит/с
Продолжительность: 01:22:49
Перевод: Любительский двухголосый закадровый (LakeFilms)
РЕЛИЗ БЕЗ РЕКЛАМЫ!

Скриншоты

MI

General
Unique ID : 99770807226002092553800449224676939677 (0x4B0F2894D8D27365CE1C05D89C1F179D)
Complete name : D:Sweetheart.2019.1080p.LakeFilms.mkv
Format : Matroska
Format version : Version 4 / Version 2
File size : 2.85 GiB
Duration : 1 h 22 min
Overall bit rate : 4 919 kb/s
Movie name : Sweetheart.2019.1080p.WEB-DL.DD5.1.H264-FGT
Encoded date : UTC 2019-10-20 22:46:28
Writing application : mkvmerge v27.0.0 ('Metropolis') 64-bit
Writing library : libebml v1.3.6 + libmatroska v1.4.9
Cover : Yes
Attachments : cover_land.jpg / small_cover.jpg / small_cover_land.jpg / cover.jpg
Video
ID : 1
Format : AVC
Format/Info : Advanced Video Codec
Format profile : [email protected]
Format settings : CABAC / 5 Ref Frames
Format settings, CABAC : Yes
Format settings, RefFrames : 5 frames
Codec ID : V_MPEG4/ISO/AVC
Duration : 1 h 22 min
Bit rate : 4 534 kb/s
Width : 1 916 pixels
Height : 798 pixels
Display aspect ratio : 2.40:1
Frame rate mode : Constant
Frame rate : 23.976 (23976/1000) FPS
Color space : YUV
Chroma subsampling : 4:2:0
Bit depth : 8 bits
Scan type : Progressive
Bits/(Pixel*Frame) : 0.124
Stream size : 2.62 GiB (92%)
Title : Sweetheart.2019.1080p.WEB-DL.DD5.1.H264-FGT
Language : English
Default : Yes
Forced : No
Color range : Limited
Color primaries : BT.709
Transfer characteristics : BT.709
Matrix coefficients : BT.709
Audio
ID : 2
Format : AC-3
Format/Info : Audio Coding 3
Codec ID : A_AC3
Duration : 1 h 22 min
Bit rate mode : Constant
Bit rate : 384 kb/s
Channel(s) : 2 channels
Channel positions : Front: L R
Sampling rate : 48.0 kHz
Frame rate : 31.250 FPS (1536 SPF)
Bit depth : 16 bits
Compression mode : Lossy
Delay relative to video : -42 ms
Stream size : 227 MiB (8%)
Service kind : Complete Main
Default : Yes
Forced : No
[korsars.info].t27374.torrent 
Торрент: Зарегистрирован [ 2020-03-25 09:00 ] · 5D52D67A71481818CBF34C98DCEBCA0C95B94A37

Скачать .torrent

Скачать .torrent

15 KB

Статус: проверено
.torrent скачан: 0 раз
Размер: 2,85 GB
Правила
Похожие темы

[Профиль] [ЛС]
Показать сообщения:    
Ответить на тему

Текущее время: 06-Апр 21:12

Часовой пояс: UTC + 4



Вы не можете начинать темы
Вы не можете отвечать на сообщения
Вы не можете редактировать свои сообщения
Вы не можете удалять свои сообщения
Вы не можете голосовать в опросах
Вы не можете прикреплять файлы к сообщениям
Вы можете скачивать файлы
Анализ сайта korsars.info Яндекс.Метрика