Как приручить дракона: Возвращение домой / How to Train Your Dragon: Homecoming (2019) WEB-DLRip 720p | D

Ответить на тему
Статистика раздачи [Обновить пиров]
Размер:  413 MB   |    Зарегистрирован:  12 дней   |    .torrent скачан:  0 раз
Раздают:  437  [  0 KB/s  ]   Качают:  25  [  0 KB/s  ]   Подробная статистика пиров
 
   
 
 
Автор Сообщение

4udaki ®

Онлайн

Медали


Пол: Мужской

Стаж: 5 лет 5 месяцев

Наличие запрета:

Сообщений: 6354

Откуда: korsars.info

Отдача: 2 Mb/s

Загрузка: 20 Mb/s

Нажми

Создавать темы 25-Мар-2020 13:00

[Цитировать]

Информация о фильме
Название: Как приручить дракона: Возвращение домой
Оригинальное название: How to Train Your Dragon: Homecoming
Год выхода: 2019
Жанр: Мультфильм, короткометражка, фэнтези, боевик, приключения, семейный
Режиссер: Тим Джонсон
В ролях: Джей Барушель, Америка Феррера, Крэйг Фергюсон, Кристофер Минц-Плассе, Лайам Фергюсон, Зак Перлман, Джерард Батлер, Джастин Руппл
О фильме:
Иккинг и Беззубик воссоединяются, чтобы напомнить викингам и драконам о неразрывной связи между ними.

Страна: США
Студия: DreamWorks Animation
Продолжительность: 00:21:27
Перевод: Профессиональный (полное дублирование) | канал СТС
Файл
Кодек: H264
Качество: WEB-DLRip 720p
Видео: 2 500 kb/s, main L4.0, yuv420p, 1280x720
Звук: AC3, 48 kHz, 2 ch, ~192.00 kbps avg | русский | СТС
Субтитры: нет

Скриншоты

MediaInfo

General
Unique ID : 179888880885798066979967444633376788700 (0x87555696A2E113A196BA83371EF410DC)
Complete name : D:123How to Train Your Dragon.Homecoming.2019.WEB-DLRip.720p.D.mkv
Format : Matroska
Format version : Version 4 / Version 2
File size : 413 MiB
Duration : 21 min 27 s
Overall bit rate : 2 694 kb/s
Encoded date : UTC 2020-02-02 09:07:34
Writing application : mkvmerge v8.3.0 ('Over the Horizon') 64bit
Writing library : libebml v1.3.1 + libmatroska v1.4.2
Video
ID : 1
Format : AVC
Format/Info : Advanced Video Codec
Format profile : [email protected]
Format settings : CABAC / 4 Ref Frames
Format settings, CABAC : Yes
Format settings, ReFrames : 4 frames
Codec ID : V_MPEG4/ISO/AVC
Duration : 21 min 27 s
Bit rate : 2 500 kb/s
Width : 1 280 pixels
Height : 720 pixels
Display aspect ratio : 16:9
Frame rate mode : Constant
Frame rate : 25.000 FPS
Color space : YUV
Chroma subsampling : 4:2:0
Bit depth : 8 bits
Scan type : Progressive
Bits/(Pixel*Frame) : 0.109
Stream size : 384 MiB (93%)
Writing library : x264 core 146
Encoding settings : cabac=1 / ref=3 / deblock=0:-1:-1 / analyse=0x1:0x111 / me=hex / subme=7 / psy=1 / psy_rd=1.00:0.15 / mixed_ref=1 / me_range=16 / chroma_me=1 / trellis=1 / 8x8dct=0 / cqm=0 / deadzone=21,11 / fast_pskip=1 / chroma_qp_offset=-3 / threads=32 / lookahead_threads=5 / sliced_threads=0 / nr=0 / decimate=1 / interlaced=0 / bluray_compat=0 / constrained_intra=0 / bframes=3 / b_pyramid=2 / b_adapt=1 / b_bias=0 / direct=1 / weightb=1 / open_gop=0 / weightp=2 / keyint=250 / keyint_min=25 / scenecut=40 / intra_refresh=0 / rc_lookahead=40 / rc=2pass / mbtree=1 / bitrate=2500 / ratetol=1.0 / qcomp=0.60 / qpmin=0 / qpmax=69 / qpstep=4 / cplxblur=20.0 / qblur=0.5 / vbv_maxrate=20000 / vbv_bufsize=25000 / nal_hrd=none / filler=0 / ip_ratio=1.40 / aq=1:1.00
Default : Yes
Forced : No
Color range : Limited
Color primaries : BT.709
Transfer characteristics : BT.709
Matrix coefficients : BT.709
Audio
ID : 2
Format : AC-3
Format/Info : Audio Coding 3
Codec ID : A_AC3
Duration : 21 min 26 s
Bit rate mode : Constant
Bit rate : 192 kb/s
Channel(s) : 2 channels
Channel positions : Front: L R
Sampling rate : 48.0 kHz
Frame rate : 31.250 FPS (1536 SPF)
Bit depth : 16 bits
Compression mode : Lossy
Stream size : 29.5 MiB (7%)
Service kind : Complete Main
Default : Yes
Forced : No
[korsars.info].t27380.torrent 
Торрент: Зарегистрирован [ 2020-03-25 13:00 ] · B2446DDD3A4E9FC5BF3CFE5659C1DFA8D5E790D9

Скачать .torrent

Скачать .torrent

17 KB

Статус: проверено
.torrent скачан: 0 раз
Размер: 413 MB
Правила
Похожие темы

[Профиль] [ЛС]
Показать сообщения:    
Ответить на тему

Текущее время: 06-Апр 21:34

Часовой пояс: UTC + 4



Вы не можете начинать темы
Вы не можете отвечать на сообщения
Вы не можете редактировать свои сообщения
Вы не можете удалять свои сообщения
Вы не можете голосовать в опросах
Вы не можете прикреплять файлы к сообщениям
Вы можете скачивать файлы
Анализ сайта korsars.info Яндекс.Метрика