Кокаиновый барон / Running with the Devil (2019) WEB-DLRip-AVC от OlLanDGroup | Локализованная версия | iTunes

Ответить на тему
Статистика раздачи [Обновить пиров]
Размер:  745 MB   |    Зарегистрирован:  8 дней   |    .torrent скачан:  0 раз
Раздают:  22  [  0 KB/s  ]   Качают:  4  [  0 KB/s  ]   Подробная статистика пиров
 
   
 
 
Автор Сообщение

4udaki ®

Оффлайн

Медали


Пол: Мужской

Стаж: 5 лет 5 месяцев

Наличие запрета:

Сообщений: 6329

Откуда: korsars.info

Отдача: 2 Mb/s

Загрузка: 20 Mb/s

Нажми

Создавать темы 25-Мар-2020 17:00

[Цитировать]

Информация о фильме
Название: Кокаиновый барон
Оригинальное название: Running with the Devil
Год выпуска: 2019
Жанр: Триллер, драма, криминал
Режиссер: Джейсон Кэбелл
В ролях: Николас Кейдж, Лоуренс Фишборн, Бэрри Пеппер, Коул Хаузер, Лесли Бибб, Питер Фачинелли, Клифтон Коллинз мл., Адам Голдберг, Наталия Рейес, Тейт Флетчер
О фильме:
Груз кокаина следует из Мексики через США в Канаду. Когда партия не достигает цели, лидер картеля Босс посылает своих верных помощников - Повара и Мужика - разобраться, как работает сеть поставщиков.

Страна: Колумбия, США
Студия: Jaguar Bite, Patriot Pictures
Продолжительность: 01:32:10
Перевод: Дублированный | iTunes
Файл
Формат: MKV
Качество: WEB-DLRip-AVC
Видео: 720x304 (2.35:1), 24 fps, x264 ~1 066 kbps avg, 0.203 bit/pixel
Звук: 48 kHz, HE-AAC, 2 ch, ~64 kbps avg | RUS
Субтитры: Русские (Forced, хардсаб)

MediaInfo:

General
Unique ID : 109589490796636144170075114503933926563 (0x52722B0E99C7DFE343AA5CC68ADE1CA3)
Complete name : D:OlLanDGroupRunning.with.the.Devil.2019.WEB-DLRip(AVC).745Mb.OlLanDGroup.mkv
Format : Matroska
Format version : Version 4
File size : 745 MiB
Duration : 1 h 32 min
Overall bit rate : 1 130 kb/s
Movie name : Running.with.the.Devil.2019.WEB-DLRip(AVC).745Mb.OlLanDGroup#Skandar#
Encoded date : UTC 2019-11-06 04:19:05
Writing application : mkvmerge v31.0.0 ('Dolores In A Shoestand') 64-bit
Writing library : libebml v1.3.6 + libmatroska v1.4.9
Video
ID : 1
Format : AVC
Format/Info : Advanced Video Codec
Format profile : [email protected]
Format settings : CABAC / 10 Ref Frames
Format settings, CABAC : Yes
Format settings, ReFrames : 10 frames
Codec ID : V_MPEG4/ISO/AVC
Duration : 1 h 32 min
Bit rate : 1 066 kb/s
Width : 720 pixels
Height : 304 pixels
Display aspect ratio : 2.35:1
Frame rate mode : Constant
Frame rate : 24.000 FPS
Color space : YUV
Chroma subsampling : 4:2:0
Bit depth : 8 bits
Scan type : Progressive
Bits/(Pixel*Frame) : 0.203
Stream size : 702 MiB (94%)
Title : Running.with.the.Devil.2019.WEB-DLRip(AVC).745Mb.OlLanDGroup#Skandar#
Writing library : x264 core 146 r2538 121396c
Encoding settings : cabac=1 / ref=10 / deblock=1:-3:-3 / analyse=0x3:0x133 / me=umh / subme=11 / psy=1 / psy_rd=0.97:0.05 / mixed_ref=1 / me_range=48 / chroma_me=1 / trellis=2 / 8x8dct=1 / cqm=0 / deadzone=21,11 / fast_pskip=0 / chroma_qp_offset=-3 / threads=6 / lookahead_threads=1 / sliced_threads=0 / nr=0 / decimate=0 / interlaced=0 / bluray_compat=0 / constrained_intra=0 / bframes=11 / b_pyramid=2 / b_adapt=2 / b_bias=0 / direct=3 / weightb=1 / open_gop=0 / weightp=2 / keyint=240 / keyint_min=23 / scenecut=40 / intra_refresh=0 / rc_lookahead=40 / rc=2pass / mbtree=0 / bitrate=1066 / ratetol=1.0 / qcomp=0.60 / qpmin=0 / qpmax=69 / qpstep=4 / cplxblur=20.0 / qblur=0.5 / vbv_maxrate=50000 / vbv_bufsize=62500 / nal_hrd=none / filler=0 / ip_ratio=1.40 / pb_ratio=1.30 / aq=1:1.00
Language : Russian
Default : Yes
Forced : No
Audio
ID : 2
Format : AAC LC SBR
Format/Info : Advanced Audio Codec Low Complexity with Spectral Band Replication
Commercial name : HE-AAC
Format settings : Explicit
Codec ID : A_AAC-2
Duration : 1 h 32 min
Bit rate : 64.0 kb/s
Channel(s) : 2 channels
Channel layout : L R
Sampling rate : 48.0 kHz
Frame rate : 23.438 FPS (2048 SPF)
Compression mode : Lossy
Delay relative to video : 31 ms
Stream size : 42.2 MiB (6%)
Title : DUB (iTunes )
Language : Russian
Default : Yes
Forced : No
Menu
00:00:00.000 : en:Глава 1
00:02:11.166 : en:Глава 2
00:07:19.041 : en:Глава 3
00:15:46.749 : en:Глава 4
00:20:53.457 : en:Глава 5
00:27:23.165 : en:Глава 6
00:37:20.623 : en:Глава 7
00:44:46.873 : en:Глава 8
00:54:06.206 : en:Глава 9
01:02:02.622 : en:Глава 10
01:10:27.747 : en:Глава 11
01:18:08.163 : en:Глава 12
01:24:12.996 : en:Глава 13

Скриншоты

Релиз от:
[korsars.info].t27384.torrent 
Торрент: Зарегистрирован [ 2020-03-25 17:00 ] · 4CBC8A0F5BF92F4F18881FDC8211A20A738F1589

Скачать .torrent

Скачать .torrent

16 KB

Статус: проверено
.torrent скачан: 0 раз
Размер: 745 MB
Правила
Похожие темы

[Профиль] [ЛС]
Показать сообщения:    
Ответить на тему

Текущее время: 03-Апр 10:51

Часовой пояс: UTC + 4



Вы не можете начинать темы
Вы не можете отвечать на сообщения
Вы не можете редактировать свои сообщения
Вы не можете удалять свои сообщения
Вы не можете голосовать в опросах
Вы не можете прикреплять файлы к сообщениям
Вы можете скачивать файлы
Анализ сайта korsars.info Яндекс.Метрика