Заражение / Contagion (2011) BDRip 720p от DHT-Movies

Ответить на тему
Статистика раздачи [Обновить пиров]
Размер:  2,9 GB   |    Зарегистрирован:  8 дней   |    .torrent скачан:  14 раз
Раздают:  225  [  5 KB/s  ]   Качают:  23  [  0 KB/s  ]   Подробная статистика пиров
 
   
 
 
Автор Сообщение

4udaki ®

Оффлайн

Медали


Пол: Мужской

Стаж: 5 лет 5 месяцев

Наличие запрета:

Сообщений: 6329

Откуда: korsars.info

Отдача: 2 Mb/s

Загрузка: 20 Mb/s

Нажми

Создавать темы 26-Мар-2020 01:00

[Цитировать]

Заражение / Contagion (2011) BDRip [720p]
от
DHT-Movies
Название: Заражение
Оригинальное название: Contagion
Год выхода: 2011
Жанр: Триллер, драма
Режиссер: Стивен Содерберг
В ролях: Марион Котийяр, Мэтт Дэймон, Лоренс Фишбёрн, Джуд Лоу, Гвинет Пэлтроу, Кейт Уинслет, Брайан Крэнстон, Дженнифер Эль, Санаа Лэтэн, Тинг Яу Цуй
Сюжет фильма:
Международная организация врачей совместно с Центром по контролю и профилактике заболеваний США пытается помешать распространению смертельного вируса.

Выпущено: США, ОАЭ
Продолжительность: 01:46:25
Перевод: Дубляж (Профессиональный) + Оригинальная звуковая дорожка
Субтитры: Русские (Полные, форсированные), Английские
Сохранены оригинальные чаптеры, как на блюрей

Релиз группы: | Рип от Ackles

Качество: BDRip [720p] (Источник: HANSMER / BD-Remux / 1080p)
Формат: MKV
Видео кодек: H.264
Видео: AVC; 1280x720 (16:9) pix; ~3007 Kbps; 23.976 fps; x264(L4.1); 0.136 bits/pixel
Аудио (Русский): 48 kHz, AC3 Dolby Digital, 6 channels, ~448 kbps
Аудио (Английский): 48 kHz, AC3 Dolby Digital, 6 channels, ~448 kbps

MI

Формат : Matroska
Версия формата : Version 2
Размер файла : 2,90 Гбайт
Продолжительность : 1 ч. 46 м.
Общий поток : 3905 Кбит/сек
Дата кодирования : UTC 2012-02-04 19:12:19
Программа кодирования : mkvmerge v5.0.1 ('Es ist Sommer') built on Oct 30 2011 21:53:49
Библиотека кодирования : libebml v1.2.2 + libmatroska v1.3.0
Видео
Идентификатор : 1
Формат : AVC
Формат/Информация : Advanced Video Codec
Профиль формата : [email protected]
Параметр CABAC формата : Да
Параметр ReFrames формата : 8 кадров
Идентификатор кодека : V_MPEG4/ISO/AVC
Продолжительность : 1 ч. 46 м.
Битрейт : 3007 Кбит/сек
Ширина : 1280 пикселей
Высота : 720 пикселей
Соотношение сторон : 16:9
Частота кадров : 23,976 кадра/сек
Цветовое пространство : YUV
Субдискретизация насыщенности : 4:2:0
Битовая глубина : 8 бит
Тип развёртки : Прогрессивная
Бит/(Пиксели*Кадры) : 0.136
Размер потока : 2,18 Гбайт (75%)
Заголовок : MKV | x264 | Ackles
Библиотека кодирования : x264 core 119 r2106 07efeb4
Настройки программы : cabac=1 / ref=8 / deblock=1:-2:-1 / analyse=0x3:0x133 / me=umh / subme=11 / psy=1 / psy_rd=1.00:0.10 / mixed_ref=1 / me_range=32 / chroma_me=1 / trellis=2 / 8x8dct=1 / cqm=0 / deadzone=21,11 / fast_pskip=0 / chroma_qp_offset=-2 / threads=3 / sliced_threads=0 / nr=0 / decimate=1 / interlaced=0 / bluray_compat=0 / constrained_intra=0 / bframes=8 / b_pyramid=2 / b_adapt=2 / b_bias=0 / direct=3 / weightb=1 / open_gop=0 / weightp=2 / keyint=240 / keyint_min=24 / scenecut=40 / intra_refresh=0 / rc_lookahead=60 / rc=2pass / mbtree=1 / bitrate=3007 / ratetol=1.0 / qcomp=0.60 / qpmin=0 / qpmax=69 / qpstep=4 / cplxblur=20.0 / qblur=0.5 / ip_ratio=1.40 / aq=1:1.00
Язык : English
Default : Да
Forced : Нет
Аудио #1
Идентификатор : 2
Формат : AC-3
Формат/Информация : Audio Coding 3
Расширение режима : CM (complete main)
Идентификатор кодека : A_AC3
Продолжительность : 1 ч. 46 м.
Вид битрейта : Постоянный
Битрейт : 448 Кбит/сек
Каналы : 6 каналов
Расположение каналов : Front: L C R, Side: L R, LFE
Частота : 48,0 КГц
Битовая глубина : 16 бит
Метод сжатия : С потерями
Размер потока : 341 Мбайт (11%)
Заголовок : AC3 | RUS | 448
Язык : Russian
Default : Да
Forced : Нет
Аудио #2
Идентификатор : 3
Формат : AC-3
Формат/Информация : Audio Coding 3
Расширение режима : CM (complete main)
Идентификатор кодека : A_AC3
Продолжительность : 1 ч. 46 м.
Вид битрейта : Постоянный
Битрейт : 448 Кбит/сек
Каналы : 6 каналов
Расположение каналов : Front: L C R, Side: L R, LFE
Частота : 48,0 КГц
Битовая глубина : 16 бит
Метод сжатия : С потерями
Размер потока : 341 Мбайт (11%)
Заголовок : AC3 | ENG | 448
Язык : English
Default : Нет
Forced : Нет
Текст #1
Идентификатор : 4
Формат : UTF-8
Идентификатор кодека : S_TEXT/UTF8
Идентификатор кодека/Информация : UTF-8 Plain Text
Заголовок : Sub | Rus | Full
Язык : Russian
Default : Нет
Forced : Нет
Текст #2
Идентификатор : 5
Формат : UTF-8
Идентификатор кодека : S_TEXT/UTF8
Идентификатор кодека/Информация : UTF-8 Plain Text
Заголовок : Sub | Rus | Forced
Язык : Russian
Default : Нет
Forced : Нет
Текст #3
Идентификатор : 6
Формат : UTF-8
Идентификатор кодека : S_TEXT/UTF8
Идентификатор кодека/Информация : UTF-8 Plain Text
Заголовок : Sub | Eng
Язык : English
Default : Нет
Forced : Нет
Меню
00:00:00.000 : en:Chapter 1
00:04:33.356 : en:Chapter 2
00:07:26.780 : en:Chapter 3
00:11:08.960 : en:Chapter 4
00:14:20.818 : en:Chapter 5
00:16:01.043 : en:Chapter 6
00:17:44.814 : en:Chapter 7
00:20:15.464 : en:Chapter 8
00:22:23.634 : en:Chapter 9
00:24:11.909 : en:Chapter 10
00:26:55.781 : en:Chapter 11
00:30:31.997 : en:Chapter 12
00:34:17.097 : en:Chapter 13
00:36:35.026 : en:Chapter 14
00:38:40.735 : en:Chapter 15
00:41:28.236 : en:Chapter 16
00:42:51.068 : en:Chapter 17
00:46:55.146 : en:Chapter 18
00:49:49.403 : en:Chapter 19
00:52:00.951 : en:Chapter 20
00:53:57.609 : en:Chapter 21
00:57:30.364 : en:Chapter 22
01:00:54.234 : en:Chapter 23
01:03:22.716 : en:Chapter 24
01:07:42.392 : en:Chapter 25
01:10:21.259 : en:Chapter 26
01:12:34.225 : en:Chapter 27
01:15:35.322 : en:Chapter 28
01:18:10.227 : en:Chapter 29
01:22:34.032 : en:Chapter 30
01:25:23.410 : en:Chapter 31
01:31:28.358 : en:Chapter 32
01:34:35.295 : en:Chapter 33
01:36:10.556 : en:Chapter 34
01:41:28.332 : en:Chapter 35

Скриншоты

[korsars.info].t27400.torrent 
Торрент: Зарегистрирован [ 2020-03-26 01:00 ] · FD606B32F88F1A80DA1DA0E5727F521ED278CEC6

Скачать .torrent

Скачать .torrent

16 KB

Статус: проверено
.torrent скачан: 14 раз
Размер: 2,9 GB
Правила
Похожие темы

[Профиль] [ЛС]
Показать сообщения:    
Ответить на тему

Текущее время: 03-Апр 10:23

Часовой пояс: UTC + 4



Вы не можете начинать темы
Вы не можете отвечать на сообщения
Вы не можете редактировать свои сообщения
Вы не можете удалять свои сообщения
Вы не можете голосовать в опросах
Вы не можете прикреплять файлы к сообщениям
Вы можете скачивать файлы
Анализ сайта korsars.info Яндекс.Метрика