Ford против Ferrari / Ford v Ferrari (2019) BDRip-HEVC 1080p от HEVC-CLUB | HDRezka Studio

Ответить на тему
Статистика раздачи [Обновить пиров]
Размер:  8,6 GB   |    Зарегистрирован:  5 месяцев 19 дней   |    .torrent скачан:  1 раз
Раздают:  246  [  0 KB/s  ]   Качают:  9  [  0 KB/s  ]   Подробная статистика пиров
 
   
 
 
Автор Сообщение

4udaki ®

Оффлайн

Медали


Пол: Мужской

Стаж: 5 лет 10 месяцев

Наличие запрета:

Сообщений: 7942

Откуда: korsars.info

Отдача: 2 Mb/s

Загрузка: 20 Mb/s

Нажми


Скачать Adguard бесплатно

Создавать темы 30-Мар-2020 09:00

[Цитировать]


Год выхода: 2019
Страна / Студия: США, Франция / Chernin Entertainment, Twentieth Century Fox
Жанр: биография, спорт, драма, боевик
Продолжительность: 02:32:35
Перевод: Многоголосый закадровый
Режиссер: Джеймс Мэнголд
В ролях: Кристиан Бэйл, Мэтт Дэймон, Катрина Балф, Трэйси Леттс, Джон Бернтал, Ноа Джуп, Джош Лукас, Ремо Джироне, Рэй Маккиннон, Джей Джей Филд
Описание: Фильм рассказывает о взаимоотношениях американского автомобильного конструктора Кэрролла Шелби и отважного британского гонщика Кена Майлза, которые вместе бросили вызов корпорациям и собственным демонам, чтобы создать абсолютно новый спорткар, который смог конкурировать с Ferrari на чемпионате мира, прошедшем во Франции в середине 1960-х.
Качество: BDRip 1080p
Видео: HEVC/H.265, 1920x804, ~6594 Kbps
Аудио 1: AC3, 6 ch, 384 Kbps - Русский, дублированный (iTunes)
Аудио 2: AC3, 6 ch, 448 Kbps - Русский, MVO (HDRezka Studio)
Аудио 3: AC3, 2 ch, 192 Kbps - Украинский, дублированный (Line)
Аудио 4: AC3, 6 ch, 448 Kbps - Английский
Субтитры: Русские (форсированные, полные), английские (форсированные, SDH)

Релиз от: Mr. Fox

Mediainfo

Общее
Уникальный идентификатор : 21451584232492057115251624464717199725 (0x10236CC27F41A65BEC53F41483D0396D)
Полное имя : R:Ford v Ferrari (2019) BDRip 1080p [HEVC] (1).mkv
Формат : Matroska
Версия формата : Version 4 / Version 2
Размер файла : 8,60 Гбайт
Продолжительность : 2 ч. 32 м.
Общий поток : 8069 Кбит/сек
Дата кодирования : UTC 2020-02-14 08:27:52
Программа кодирования : mkvmerge v28.2.0 ('The Awakening') 64-bit
Библиотека кодирования : libebml v1.3.6 + libmatroska v1.4.9
Обложка : Yes
Attachments : cover.jpg
Видео
Идентификатор : 1
Формат : HEVC
Формат/Информация : High Efficiency Video Coding
Профиль формата : Main [email protected]@High
Идентификатор кодека : V_MPEGH/ISO/HEVC
Продолжительность : 2 ч. 32 м.
Битрейт : 6594 Кбит/сек
Ширина : 1920 пикселей
Высота : 804 пикселя
Соотношение сторон : 2,40:1
Режим частоты кадров : Постоянный
Частота кадров : 23,976 (23976/1000) кадра/сек
Частота кадров в оригинале : 23,976 (24000/1001) кадра/сек
Цветовое пространство : YUV
Субдискретизация насыщенности : 4:2:0
Битовая глубина : 10 бит
Бит/(Пиксели*Кадры) : 0.178
Размер потока : 7,03 Гбайт (82%)
Библиотека кодирования : x265 3.2.1+1-b5c86a64bbbe:[Windows][MSVC 1923][64 bit] 10bit
Настройки программы : cpuid=1111039 / frame-threads=3 / numa-pools=12 / wpp / no-pmode / no-pme / no-psnr / no-ssim / log-level=2 / input-csp=1 / input-res=1920x804 / interlace=0 / total-frames=211663 / level-idc=41 / high-tier=1 / uhd-bd=0 / ref=5 / no-allow-non-conformance / no-repeat-headers / annexb / no-aud / no-hrd / info / hash=0 / no-temporal-layers / open-gop / min-keyint=23 / keyint=240 / gop-lookahead=0 / bframes=12 / b-adapt=2 / b-pyramid / bframe-bias=0 / rc-lookahead=60 / lookahead-slices=4 / scenecut=40 / radl=0 / no-splice / no-intra-refresh / ctu=32 / min-cu-size=8 / rect / amp / max-tu-size=32 / tu-inter-depth=4 / tu-intra-depth=4 / limit-tu=1 / rdoq-level=2 / dynamic-rd=0.00 / no-ssim-rd / signhide / no-tskip / nr-intra=0 / nr-inter=0 / no-constrained-intra / no-strong-intra-smoothing / max-merge=4 / limit-refs=2 / limit-modes / me=3 / subme=7 / merange=57 / temporal-mvp / no-hme / weightp / weightb / no-analyze-src-pics / deblock=-3:-3 / no-sao / no-sao-non-deblock / rd=6 / selective-sao=0 / no-early-skip / no-rskip / no-fast-intra / no-tskip-fast / no-cu-lossless / no-b-intra / no-splitrd-skip / rdpenalty=0 / psy-rd=2.00 / psy-rdoq=1.00 / no-rd-refine / no-lossless / cbqpoffs=0 / crqpoffs=0 / rc=crf / crf=20.0 / qcomp=0.65 / qpstep=4 / stats-write=0 / stats-read=0 / vbv-maxrate=50000 / vbv-bufsize=50000 / vbv-init=0.9 / crf-max=0.0 / crf-min=0.0 / ipratio=1.40 / pbratio=1.30 / aq-mode=1 / aq-strength=1.00 / no-cutree / zone-count=0 / no-strict-cbr / qg-size=32 / no-rc-grain / qpmax=69 / qpmin=0 / no-const-vbv / sar=1 / overscan=0 / videoformat=5 / range=0 / colorprim=1 / transfer=1 / colormatrix=1 / chromaloc=0 / display-window=0 / cll=0,0 / min-luma=0 / max-luma=1023 / log2-max-poc-lsb=8 / vui-timing-info / vui-hrd-info / slices=1 / no-opt-qp-pps / no-opt-ref-list-length-pps / no-multi-pass-opt-rps / scenecut-bias=0.05 / no-opt-cu-delta-qp / no-aq-motion / no-hdr / no-hdr-opt / no-dhdr10-opt / no-idr-recovery-sei / analysis-reuse-level=5 / scale-factor=0 / refine-intra=0 / refine-inter=0 / refine-mv=1 / refine-ctu-distortion=0 / no-limit-sao / ctu-info=0 / no-lowpass-dct / refine-analysis-type=0 / copy-pic=1 / max-ausize-factor=1.0 / no-dynamic-refine / no-single-sei / no-hevc-aq / no-svt / no-field / qp-adaptation-range=1.00
Default : Да
Forced : Нет
Цветовой диапазон : Limited
Основные цвета : BT.709
Характеристики трансфера : BT.709
Коэффициенты матрицы : BT.709
Аудио #1
Идентификатор : 2
Формат : AC-3
Формат/Информация : Audio Coding 3
Идентификатор кодека : A_AC3
Продолжительность : 2 ч. 32 м.
Вид битрейта : Постоянный
Битрейт : 384 Кбит/сек
Каналы : 6 каналов
Расположение каналов : Front: L C R, Side: L R, LFE
Частота : 48,0 КГц
Частота кадров : 31,250 кадров/сек (1536 SPF)
Битовая глубина : 16 бит
Метод сжатия : С потерями
Размер потока : 419 Мбайт (5%)
Заголовок : Dub (iTunes)
Язык : Russian
ServiceKind/Strin : Complete Main
Default : Да
Forced : Нет
Аудио #2
Идентификатор : 3
Формат : AC-3
Формат/Информация : Audio Coding 3
Идентификатор кодека : A_AC3
Продолжительность : 2 ч. 32 м.
Вид битрейта : Постоянный
Битрейт : 448 Кбит/сек
Каналы : 6 каналов
Расположение каналов : Front: L C R, Side: L R, LFE
Частота : 48,0 КГц
Частота кадров : 31,250 кадров/сек (1536 SPF)
Битовая глубина : 16 бит
Метод сжатия : С потерями
Размер потока : 489 Мбайт (6%)
Заголовок : MVO | HDRezka Studio
Язык : Russian
ServiceKind/Strin : Complete Main
Default : Нет
Forced : Нет
Аудио #3
Идентификатор : 4
Формат : AC-3
Формат/Информация : Audio Coding 3
Идентификатор кодека : A_AC3
Продолжительность : 2 ч. 32 м.
Вид битрейта : Постоянный
Битрейт : 192 Кбит/сек
Каналы : 2 канала
Расположение каналов : Front: L R
Частота : 48,0 КГц
Частота кадров : 31,250 кадров/сек (1536 SPF)
Битовая глубина : 16 бит
Метод сжатия : С потерями
Размер потока : 210 Мбайт (2%)
Заголовок : Line
Язык : Ukrainian
ServiceKind/Strin : Complete Main
Default : Нет
Forced : Нет
Аудио #4
Идентификатор : 5
Формат : AC-3
Формат/Информация : Audio Coding 3
Идентификатор кодека : A_AC3
Продолжительность : 2 ч. 32 м.
Вид битрейта : Постоянный
Битрейт : 448 Кбит/сек
Каналы : 6 каналов
Расположение каналов : Front: L C R, Side: L R, LFE
Частота : 48,0 КГц
Частота кадров : 31,250 кадров/сек (1536 SPF)
Битовая глубина : 16 бит
Метод сжатия : С потерями
Размер потока : 489 Мбайт (6%)
Язык : English
ServiceKind/Strin : Complete Main
Default : Нет
Forced : Нет
Текст #1
Идентификатор : 6
Формат : UTF-8
Идентификатор кодека : S_TEXT/UTF8
Идентификатор кодека/Информация : UTF-8 Plain Text
Продолжительность : 1 ч. 57 м.
Битрейт : 1 бит/сек
ElementCount : 14
Размер потока : 1,06 Кбайт (0%)
Заголовок : Forced
Язык : Russian
Default : Да
Forced : Да
Текст #2
Идентификатор : 7
Формат : UTF-8
Идентификатор кодека : S_TEXT/UTF8
Идентификатор кодека/Информация : UTF-8 Plain Text
Продолжительность : 2 ч. 26 м.
Битрейт : 82 бит/сек
ElementCount : 1652
Размер потока : 87,8 Кбайт (0%)
Заголовок : Full
Язык : Russian
Default : Нет
Forced : Нет
Текст #3
Идентификатор : 8
Формат : UTF-8
Идентификатор кодека : S_TEXT/UTF8
Идентификатор кодека/Информация : UTF-8 Plain Text
Продолжительность : 1 ч. 24 м.
Битрейт : 0 бит/сек
ElementCount : 9
Размер потока : 304 байт (0%)
Заголовок : Forced
Язык : English
Default : Нет
Forced : Нет
Текст #4
Идентификатор : 9
Формат : UTF-8
Идентификатор кодека : S_TEXT/UTF8
Идентификатор кодека/Информация : UTF-8 Plain Text
Продолжительность : 2 ч. 32 м.
Битрейт : 66 бит/сек
ElementCount : 2489
Размер потока : 73,8 Кбайт (0%)
Заголовок : SDH
Язык : English
Default : Нет
Forced : Нет
Меню
00:00:00.000 : :Chapter 01
00:04:45.619 : :Chapter 02
00:07:32.535 : :Chapter 03
00:10:02.811 : :Chapter 04
00:15:39.313 : :Chapter 05
00:20:15.172 : :Chapter 06
00:21:39.798 : :Chapter 07
00:26:00.893 : :Chapter 08
00:31:57.874 : :Chapter 09
00:34:09.756 : :Chapter 10
00:39:13.268 : :Chapter 11
00:42:06.899 : :Chapter 12
00:45:57.004 : :Chapter 13
00:48:38.666 : :Chapter 14
00:51:22.079 : :Chapter 15
00:55:03.675 : :Chapter 16
00:57:50.801 : :Chapter 17
01:00:27.040 : :Chapter 18
01:06:33.489 : :Chapter 19
01:11:59.815 : :Chapter 20
01:16:13.778 : :Chapter 21
01:19:30.516 : :Chapter 22
01:24:18.762 : :Chapter 23
01:29:24.985 : :Chapter 24
01:33:16.174 : :Chapter 25
01:38:11.302 : :Chapter 26
01:40:57.468 : :Chapter 27
01:43:23.322 : :Chapter 28
01:45:49.218 : :Chapter 29
01:50:38.966 : :Chapter 30
01:53:38.353 : :Chapter 31
01:57:47.602 : :Chapter 32
02:00:16.668 : :Chapter 33
02:05:22.890 : :Chapter 34
02:09:18.376 : :Chapter 35
02:12:01.497 : :Chapter 36
02:15:26.410 : :Chapter 37
02:18:23.128 : :Chapter 38
02:20:46.438 : :Chapter 39
02:26:27.612 : :Chapter 40
[korsars.info].t27543.torrent 
Торрент: Зарегистрирован [ 2020-03-30 09:00 ] · 14942A848D5254754D2CA0AF69940022B21BD0FC

Скачать .torrent

Размер .torrent файла 44 KB

Статус: проверено
.torrent скачан: 1 раз
Размер: 8,6 GB
Правила
Похожие темы

[Профиль] [ЛС]
Показать сообщения:    
Ответить на тему

Текущее время: 18-Сен 16:53

Часовой пояс: UTC + 4



Вы не можете начинать темы
Вы не можете отвечать на сообщения
Вы не можете редактировать свои сообщения
Вы не можете удалять свои сообщения
Вы не можете голосовать в опросах
Вы не можете прикреплять файлы к сообщениям
Вы можете скачивать файлы
Анализ сайта korsars.info Яндекс.Метрика