Литераторы и алхимики: Шестерни судей / Bungou to Alchemist: Shinpan no Haguruma [S01x01-04 из 13] (2020) WEBRip 1080p от KORSARS.INFO | StudioBand

Ответить на тему
Статистика раздачи [Обновить пиров]
Размер:  2,31 GB   |    Зарегистрирован:  4 дня   |    .torrent скачан:  24 раза
Раздают:  12  [  0 KB/s  ]   Качают:  6  [  0 KB/s  ]   Подробная статистика пиров
 
   
 
 
Автор Сообщение

4udaki ®

Онлайн

Медали


Пол: Мужской

Стаж: 5 лет 6 месяцев

Наличие запрета:

Сообщений: 6874

Откуда: korsars.info

Отдача: 2 Mb/s

Загрузка: 20 Mb/s

Нажми

Создавать темы 29-Апр-2020 20:29

[Цитировать]

Литераторы и алхимики: Шестерни судей / Bungou to Alchemist: Shinpan no Haguruma-Год выпуска: 2020
Страна:
Япония
Жанр: экшен, приключения, фэнтези
Продолжительность: ~ 00:24:00 (серия)
Перевод: Профессиональный (многоголосый, закадровый) | StudioBand [Wakanim]
Режиссёр: Одахиро Ватанабэ
В ролях: Юити Накамура, Масая Оносака, Томокадзу Сугита, Дзюнъити Сувабэ
Субтитры: русские (вшитые на надписи)-Рейтинг:
-Описание:
Бесчисленные книги, созданные чудесными литераторами — писателями… Без преувеличения, они украшают нашу жизнь, делают весь мир богаче! Под твёрдым переплётом спрятаны прекрасные истории, что раскрывают нам свои особые, неповторимые вселенные и трогают до самой глубины души… Но есть создания, желающие испортить эти драгоценные труды. «Очернители» — порождения всех отрицательных эмоций, что когда-либо испытывали читатели к произведениям пера. И только литераторы, перерождённые силой алхимиков, могут прорваться на страницы книг и очистить их от очернителей. Они погружаются в бесчисленные фолианты, чтобы спасти их от захватчиков… Всё во имя спасения книг! И сейчас перед вами развернётся совершенно новая история о людях, которые вкладывали душу в свои произведения… © Wakanim-Качество: WEBRip 1080p
Формат: MKV (H.264)
Видео: 1920x1080, ~ 3 468 kb/s, 23.976 FPS, 8 bits
Аудио RUS: AC-3, ~ 320 kb/s, 2 channels, 48.0 kHz-

MediaInfo

1-я серия
General
Unique ID : 247868250331862488362171118432059654884 (0xBA79B045514537E7AB40DE8857D802E4)
Complete name : [KORSARS]_Bungou.to.Alchemist.Shinpan.no.Haguruma.[S01E01].WEBRip.1080p_[StudioBand].mkv
Format : Matroska
Format version : Version 4
File size : 660 MiB
Duration : 23 min 52 s
Overall bit rate : 3 865 kb/s
Encoded date : UTC 2020-04-29 16:16:37
Writing application : HandBrake 1.3.1 2020010400
Writing library : Lavf58.29.100
ErrorDetectionType : Per level 1
Video
ID : 1
Format : AVC
Format/Info : Advanced Video Codec
Format profile : [email protected]
Format settings : CABAC / 4 Ref Frames
Format settings, CABAC : Yes
Format settings, Reference : 4 frames
Codec ID : V_MPEG4/ISO/AVC
Duration : 23 min 52 s
Bit rate : 3 468 kb/s
Width : 1 920 pixels
Height : 1 080 pixels
Display aspect ratio : 16:9
Frame rate mode : Constant
Frame rate : 23.976 (24000/1001) FPS
Color space : YUV
Chroma subsampling : 4:2:0
Bit depth : 8 bits
Scan type : Progressive
Bits/(Pixel*Frame) : 0.070
Stream size : 592 MiB (90%)
Writing library : x264 core 157 r2935 545de2f
Encoding settings : cabac=1 / ref=3 / deblock=1:0:0 / analyse=0x1:0x111 / me=hex / subme=7 / psy=1 / psy_rd=1.00:0.00 / mixed_ref=1 / me_range=16 / chroma_me=1 / trellis=1 / 8x8dct=0 / cqm=0 / deadzone=21,11 / fast_pskip=1 / chroma_qp_offset=-2 / threads=9 / lookahead_threads=1 / sliced_threads=0 / nr=0 / decimate=1 / interlaced=0 / bluray_compat=0 / constrained_intra=0 / bframes=3 / b_pyramid=2 / b_adapt=1 / b_bias=0 / direct=1 / weightb=1 / open_gop=0 / weightp=2 / keyint=240 / keyint_min=24 / scenecut=40 / intra_refresh=0 / rc_lookahead=40 / rc=crf / mbtree=1 / crf=20.0 / qcomp=0.60 / qpmin=0 / qpmax=69 / qpstep=4 / vbv_maxrate=20000 / vbv_bufsize=25000 / crf_max=0.0 / nal_hrd=none / filler=0 / ip_ratio=1.40 / aq=1:1.00
Default : Yes
Forced : No
Color range : Limited
Color primaries : BT.709
Transfer characteristics : BT.709
Matrix coefficients : BT.709
Audio
ID : 2
Format : AC-3
Format/Info : Audio Coding 3
Commercial name : Dolby Digital
Codec ID : A_AC3
Duration : 23 min 52 s
Bit rate mode : Constant
Bit rate : 320 kb/s
Channel(s) : 2 channels
Channel layout : L R
Sampling rate : 48.0 kHz
Frame rate : 31.250 FPS (1536 SPF)
Compression mode : Lossy
Delay relative to video : -5 ms
Stream size : 54.6 MiB (8%)
Title : Stereo
Service kind : Complete Main
Default : Yes
Forced : No
-

Скриншоты

-Донатик (на будущие анимешки ^_^)- -21.05.2020 обновлено. Добавлена 4-я серия-
[korsars.info].t28356.torrent 
Торрент: Зарегистрирован [ 2020-05-21 16:23 ] · 76B65703D7B07846B167D965E3A0E459B707231B

Скачать .torrent

Скачать .torrent

12 KB

Статус: проверено
.torrent скачан: 24 раз
Размер: 2,31 GB
Правила
loe3df(21-Май-20)

[Профиль] [ЛС]
Показать сообщения:    
Ответить на тему

Текущее время: 25-Май 21:48

Часовой пояс: UTC + 4



Вы не можете начинать темы
Вы не можете отвечать на сообщения
Вы не можете редактировать свои сообщения
Вы не можете удалять свои сообщения
Вы не можете голосовать в опросах
Вы не можете прикреплять файлы к сообщениям
Вы можете скачивать файлы
Анализ сайта korsars.info Яндекс.Метрика