Рилаккума и Каору / Rilakkuma and Kaoru [S01] (2019) WEBRip от Deadmauvlad | D | Netflix

Ответить на тему
Статистика раздачи [Обновить пиров]
Размер:  2,74 GB   |    Зарегистрирован:  19 дней   |    .torrent скачан:  4 раза
Раздают:  16  [  0 KB/s  ]   Качают:  7  [  0 KB/s  ]   Подробная статистика пиров
 
   
 
 
Автор Сообщение

deadmauvlad ®

Оффлайн

Медали


Пол: Мужской

Стаж: 1 месяц 29 дней

Наличие запрета:

Сообщений: 26

Откуда: Siberian Republic

Отдача: не определено

Загрузка: не определено

Нажми

Создавать темы 06-Май-2020 18:57

[Цитировать]


Информация о фильме
Название: Рилаккума и Каору
Оригинальное название: Rilakkuma and Kaoru
Год выхода: 2019
Жанр: Кодомо, Комедия, Повседневность, Семейный
Режиссер: Масахито Кобаяси
В ролях: Вероника Тейлор, Эбби Тротт, Барбара Гудсон, Кристофер Хакни, Дэвид Винсент
О фильме: Рилаккума однажды внезапно появился в квартире обычной офисной работницы Каору и остался жить в гостеприимном доме и дальше. На спине у медведя есть молния, но что она скрывает неизвестно. Это рассказ о буднях необычной компании, состоящей из обычного медведя Рилаккумы, его подруги белой медвидицы Корилаккумы, обычной девушки Каору и ее канарейки Киироитори.
-Страна: Япония
Студия: San-X, Netflix
Продолжительность: 13 Серий x 00:12:00
Перевод: Профессиональный Дублированный |Netflix
Файл
Качество: WEBRip | Исходник: Rilakkuma and Kaoru S01 [1080p] by DragsterPS |
Формат: AVI
Кодек: XviD
Аудио кодек: AC3
Видео: 720x400 (16:9), 23.976 fps, 1 531 kb/s (0.222 bit/pixel)
Аудио #1: AC-3, 48.0 kHz, 6 ch, 448 kb/s, CBR | | Netflix
Аудио #2: AC-3, 48.0 kHz, 6 ch, 448 kb/s, CBR | | Japan (Оригинал)
Русские Субтитры: Есть в раздаче (Полные/Надписи)

MediaInfo:

General
Complete name : D:фильмы[Deadmau- RAWS] Рилаккума.и.Каору.S01.RUS.JAP.WEBRip.Deadmauvlad[Deadmau- RAWS] Рилаккума.и.Каору.S01.RUS.JAP.WEBRip.Deadmauvlad.Ep.01.avi
Format : AVI
Format/Info : Audio Video Interleave
File size : 220 MiB
Duration : 12 min 37 s
Overall bit rate : 2 441 kb/s
Movie name : [Deadmau- RAWS] Рилаккума.и.Каору.S01.RUS.JAP.WEBRip.Deadmauvlad.Ep.01
Director : Encoder by Deadmauvlad
Genre : кодомо, комедия
Writing application : VirtualDubMod 1.5.10.3 | www.virtualdub-fr.org || (build 2550/release)
Original source form/Name : Аниме
Copyright : Encoder by Deadmauvlad
Comment : Encoder by Deadmauvlad
Video
ID : 0
Format : MPEG-4 Visual
Format profile : Advanced [email protected]
Format settings : BVOP1 / Custom Matrix
Format settings, BVOP : 1
Format settings, QPel : No
Format settings, GMC : No warppoints
Format settings, Matrix : Custom
Codec ID : XVID
Codec ID/Hint : XviD
Duration : 12 min 37 s
Bit rate : 1 531 kb/s
Width : 720 pixels
Height : 400 pixels
Display aspect ratio : 16:9
Frame rate : 23.976 (24000/1001) FPS
Color space : YUV
Chroma subsampling : 4:2:0
Bit depth : 8 bits
Scan type : Progressive
Compression mode : Lossy
Bits/(Pixel*Frame) : 0.222
Stream size : 138 MiB (63%)
Writing library : XviD 73
Audio #1
ID : 1
Format : AC-3
Format/Info : Audio Coding 3
Commercial name : Dolby Digital
Codec ID : 2000
Duration : 12 min 37 s
Bit rate mode : Constant
Bit rate : 448 kb/s
Channel(s) : 6 channels
Channel layout : L R C LFE Ls Rs
Sampling rate : 48.0 kHz
Frame rate : 31.250 FPS (1536 SPF)
Bit depth : 16 bits
Compression mode : Lossy
Stream size : 40.4 MiB (18%)
Alignment : Split accross interleaves
Interleave, duration : 42 ms (1.00 video frame)
Interleave, preload duration : 500 ms
Service kind : Complete Main
Audio #2
ID : 2
Format : AC-3
Format/Info : Audio Coding 3
Commercial name : Dolby Digital
Codec ID : 2000
Duration : 12 min 37 s
Bit rate mode : Constant
Bit rate : 448 kb/s
Channel(s) : 6 channels
Channel layout : L R C LFE Ls Rs
Sampling rate : 48.0 kHz
Frame rate : 31.250 FPS (1536 SPF)
Bit depth : 16 bits
Compression mode : Lossy
Stream size : 40.4 MiB (18%)
Alignment : Split accross interleaves
Interleave, duration : 42 ms (1.00 video frame)
Interleave, preload duration : 500 ms
Service kind : Complete Main

Скриншоты

Релиз / Автор рипа: Deadmauvlad ^_^
[korsars.info].t28536.torrent 
Торрент: Зарегистрирован [ 2020-05-06 18:57 ] · 2BC8A5041AE851707BE9760AF6A88DBCE53A67A6

Скачать .torrent

Скачать .torrent

9 KB

Статус: проверено
.torrent скачан: 4 раз
Размер: 2,74 GB
Правила
4udaki(06-Май-20)
Похожие темы

[Профиль] [ЛС]

Создавать темы 06-Май-2020 19:22 (спустя 24 минуты)

Топик был перенесен из форума Аниме в форум Мультфильмы
Причина переноса: Правильный форум
4udaki
 

Создавать темы 06-Май-2020 19:42 (спустя 44 минуты)

Топик был перенесен из форума Мультфильмы в форум Мультсериалы
Причина переноса: Правильный форум (2)
4udaki
 
Показать сообщения:    
Ответить на тему

Текущее время: 25-Май 22:07

Часовой пояс: UTC + 4



Вы не можете начинать темы
Вы не можете отвечать на сообщения
Вы не можете редактировать свои сообщения
Вы не можете удалять свои сообщения
Вы не можете голосовать в опросах
Вы не можете прикреплять файлы к сообщениям
Вы можете скачивать файлы
Анализ сайта korsars.info Яндекс.Метрика