Леди и Бродяга / Lady and the Tramp (2019) WEBRip-HEVC 2160p | HDR | Flarrow Films

Ответить на тему
Статистика раздачи [Обновить пиров]
Размер:  15,26 GB   |    Зарегистрирован:  11 дней   |    .torrent скачан:  1 раз
Раздают:  26  [  0 KB/s  ]   Качают:  3  [  0 KB/s  ]   Подробная статистика пиров
 
   
 
 
Автор Сообщение

4udaki ®

Онлайн

Медали


Пол: Мужской

Стаж: 5 лет 6 месяцев

Наличие запрета:

Сообщений: 6874

Откуда: korsars.info

Отдача: 2 Mb/s

Загрузка: 20 Mb/s

Нажми

Создавать темы 14-Май-2020 05:00

[Цитировать]

Информация о фильме
Название: Леди и Бродяга
Оригинальное название: Lady and the Tramp
Год выхода: 2019
Жанр: драма, мелодрама, комедия, приключения, семейный
Режиссер: Чарли Бин
В ролях: Тесса Томпсон, Джастин Теру, Сэм Эллиотт, Эшли Дженсен, Жанель Монэ, Бенедикт Вонг, Клэнси Браун, Нейт «Ракета» Уандер, Роман ДжанАртур Ирвин, Джеймс Бентли
О фильме:
Чтобы порадовать дорогую супругу, джентльмен по имени Джим Ди решает презентовать очаровательного щеночка благородных кровей. Ему предложили девочку, которую назвали Леди. По соседству проживают породистые собаки, с которыми можно заводить респектабельные отношения - терьер и бладхаунд. Героиня фильма «Леди и Бродяга» обладает хорошими манерами и умеет вести себя в обществе, а об ее изящности ходят слухи в соответствующих высших кругах. Очаровашка не подозревает, что в приличных условиях живут только избранные, а в бедных районах псам приходится бороться за выживание и питаться отбросами. В последнее время беспризорных развелось слишком много, поэтому власти решили дать разрешение на отстрел. Чтобы спастись от преследователей добрый и шустрый Бродяга скрывается в роскошном квартале и встречается с собачкой, которой придется многое узнать о другой стороне жизни. Она сбежала от хозяев, обидевшись на то, что они завели ребенка и уделяют ему больше времени.

Страна: США
Студия: Taylor Made, Walt Disney Company, The, Walt Disney Pictures
Продолжительность: 01:42:49
Перевод: Любительский (многоголосый, закадровый)
Файл
Кодек: H.265
Качество: WEBRip-HEVC 2160p | HDR
Видео: HEVC HDR, 20.7 Mбит/с, 3840x1920, 23.976 кадр/с
Звук:
Русский: 48 kHz, AC3 Dolby Digital, 3/2 (L,C,R,l,r) + LFE ch, ~256 kbps avg / Любительский (многоголосый, закадровый) | Flarrow Films
Английский: 48 kHz, E-AC3 Dolby Digital, 3/2 (L,C,R,l,r) + LFE ch, ~256 kbps avg
Субтитры: Английские (SDH)

Скриншоты

MI

General
Unique ID : 254900890850828169159471259851945712266 (0xBFC42037F8BC7E1F19B70DC522DC9A8A)
Complete name : C:KINOLady.and.the.Tramp.2019.2160p.HDR.Disney+.WEBRip.mkv
Format : Matroska
Format version : Version 4
File size : 15.3 GiB
Duration : 1 h 42 min
Overall bit rate : 21.2 Mb/s
Encoded date : UTC 2019-12-20 10:46:45
Writing application : mkvmerge v38.0.0 ('The Silent Type') 64-bit
Writing library : libebml v1.3.9 + libmatroska v1.5.2
Cover : Yes
Attachments : cover.jpg
Video
ID : 1
Format : HEVC
Format/Info : High Efficiency Video Coding
Format profile : Main [email protected]@Main
Codec ID : V_MPEGH/ISO/HEVC
Duration : 1 h 42 min
Bit rate : 20.7 Mb/s
Width : 3 840 pixels
Height : 1 920 pixels
Display aspect ratio : 2.000
Frame rate mode : Constant
Frame rate : 23.976 (24000/1001) FPS
Color space : YUV
Chroma subsampling : 4:2:0
Bit depth : 10 bits
Bits/(Pixel*Frame) : 0.117
Stream size : 14.9 GiB (98%)
Title : WEBRip.2160p.HDR by Silverok
Writing library : x265 3.2+8-7fc1f6ef2b96:[Windows][MSVC 1923][64 bit] 10bit
Encoding settings : cpuid=1111039 / frame-threads=4 / numa-pools=28 / wpp / no-pmode / no-pme / no-psnr / no-ssim / log-level=2 / input-csp=1 / input-res=3840x1920 / interlace=0 / total-frames=0 / level-idc=0 / high-tier=1 / uhd-bd=0 / ref=5 / no-allow-non-conformance / repeat-headers / annexb / no-aud / no-hrd / info / hash=0 / no-temporal-layers / open-gop / min-keyint=23 / keyint=250 / gop-lookahead=0 / bframes=8 / b-adapt=2 / b-pyramid / bframe-bias=0 / rc-lookahead=40 / lookahead-slices=0 / scenecut=40 / radl=0 / no-splice / no-intra-refresh / ctu=64 / min-cu-size=8 / no-rect / no-amp / max-tu-size=32 / tu-inter-depth=3 / tu-intra-depth=3 / limit-tu=0 / rdoq-level=1 / dynamic-rd=0.00 / no-ssim-rd / signhide / no-tskip / nr-intra=0 / nr-inter=0 / no-constrained-intra / strong-intra-smoothing / max-merge=5 / limit-refs=0 / no-limit-modes / me=3 / subme=4 / merange=57 / temporal-mvp / no-frame-dup / no-hme / weightp / weightb / no-analyze-src-pics / deblock=0:0 / no-sao / no-sao-non-deblock / rd=6 / selective-sao=0 / no-early-skip / rskip / no-fast-intra / no-tskip-fast / no-cu-lossless / b-intra / no-splitrd-skip / rdpenalty=0 / psy-rd=4.00 / psy-rdoq=8.00 / no-rd-refine / no-lossless / cbqpoffs=0 / crqpoffs=0 / rc=crf / crf=14.0 / qcomp=0.60 / qpstep=4 / stats-write=0 / stats-read=0 / ipratio=1.40 / pbratio=1.30 / aq-mode=2 / aq-strength=1.00 / cutree / zone-count=0 / no-strict-cbr / qg-size=32 / no-rc-grain / qpmax=69 / qpmin=0 / no-const-vbv / sar=0 / overscan=0 / videoformat=5 / range=0 / colorprim=9 / transfer=16 / colormatrix=9 / chromaloc=0 / display-window=0 / cll=0,0 / min-luma=0 / max-luma=1023 / log2-max-poc-lsb=8 / vui-timing-info / vui-hrd-info / slices=1 / no-opt-qp-pps / no-opt-ref-list-length-pps / no-multi-pass-opt-rps / scenecut-bias=0.05 / no-opt-cu-delta-qp / no-aq-motion / no-hdr / hdr-opt / no-dhdr10-opt / no-idr-recovery-sei / analysis-reuse-level=5 / scale-factor=0 / refine-intra=0 / refine-inter=0 / refine-mv=1 / refine-ctu-distortion=0 / no-limit-sao / ctu-info=0 / no-lowpass-dct / refine-analysis-type=0 / copy-pic=1 / max-ausize-factor=1.0 / no-dynamic-refine / no-single-sei / no-hevc-aq / no-svt / no-field / qp-adaptation-range=1.00
Default : Yes
Forced : No
Color range : Limited
Color primaries : BT.2020
Transfer characteristics : PQ
Matrix coefficients : BT.2020 non-constant
Audio #1
ID : 2
Format : AC-3
Format/Info : Audio Coding 3
Commercial name : Dolby Digital
Codec ID : A_AC3
Duration : 1 h 42 min
Bit rate mode : Constant
Bit rate : 256 kb/s
Channel(s) : 6 channels
Channel layout : L R C LFE Ls Rs
Sampling rate : 48.0 kHz
Frame rate : 31.250 FPS (1536 SPF)
Compression mode : Lossy
Stream size : 188 MiB (1%)
Title : Любительский (многоголосый, закадровый) | Flarrow Films
Language : Russian
Service kind : Complete Main
Default : Yes
Forced : No
Audio #2
ID : 3
Format : E-AC-3
Format/Info : Enhanced AC-3
Commercial name : Dolby Digital Plus
Codec ID : A_EAC3
Duration : 1 h 42 min
Bit rate mode : Constant
Bit rate : 256 kb/s
Channel(s) : 6 channels
Channel layout : L R C LFE Ls Rs
Sampling rate : 48.0 kHz
Frame rate : 31.250 FPS (1536 SPF)
Compression mode : Lossy
Stream size : 188 MiB (1%)
Language : English
Service kind : Complete Main
Default : No
Forced : No
Text
ID : 4
Format : UTF-8
Codec ID : S_TEXT/UTF8
Codec ID/Info : UTF-8 Plain Text
Duration : 1 h 40 min
Bit rate : 72 b/s
Count of elements : 1803
Stream size : 53.6 KiB (0%)
Title : SDH
Language : English
Default : No
Forced : No
-
[korsars.info].t28712.torrent 
Торрент: Зарегистрирован [ 2020-05-14 05:00 ] · C7CA5BA44B5021F4245FBD855E471E614E2E2AE2

Скачать .torrent

Скачать .torrent

39 KB

Статус: проверено
.torrent скачан: 1 раз
Размер: 15,26 GB
Правила
Похожие темы

[Профиль] [ЛС]
Показать сообщения:    
Ответить на тему

Текущее время: 25-Май 21:18

Часовой пояс: UTC + 4



Вы не можете начинать темы
Вы не можете отвечать на сообщения
Вы не можете редактировать свои сообщения
Вы не можете удалять свои сообщения
Вы не можете голосовать в опросах
Вы не можете прикреплять файлы к сообщениям
Вы можете скачивать файлы
Анализ сайта korsars.info Яндекс.Метрика