Моя реинкарнация в отомэ-игре в качестве главной злодейки / Hamefura [S01] (2020) WEBRip 1080p от Fortuna.TV | Crunchyroll

Ответить на тему
Статистика раздачи [Обновить пиров]
Размер:  16,41 GB   |    Зарегистрирован:  14 дней   |    .torrent скачан:  18 раз
Раздают:  19  [  1 KB/s  ]   Качают:  14  [  0,1 KB/s  ]   Подробная статистика пиров
 
   
 
 
Автор Сообщение

loe3df ®

Оффлайн

Медали


Пол: Не указан

Стаж: 5 месяцев 26 дней

Наличие запрета:

Сообщений: 59

Отдача: не определено

Загрузка: не определено

Нажми

Создавать темы 14-Май-2020 14:34

[Цитировать]

Моя реинкарнация в отомэ-игре в качестве главной злодейки / Otome Game no Hametsu Flag shika Nai Akuyaku Reijou ni Tensei Shiteshimatta- Год выпуска: 2020
Страна: Япония
Жанр: комедия, исекай, романтика
Продолжительность: ~ 00:25:00 (серия)
Перевод: Профессиональный многоголосый (закадровый) | Crunchyroll
Режиссёр: Иноэ Кэйсукэ
Субтитры: Русские надписи; русские (полные): Crunchyroll.-Рейтинг:
-Описание:
Дочь знатного рода Клас, Катарина, получила камнем по лбу и вспомнила прошлую жизнь. Оказывается, она родилась в мире отомэ-игры Fortune Lover, которую обожала в своей прошлой инкарнации. Только вот… переродилась девушка в злодейку, что только и знает, как строить козни главной героине! Лучшая концовка Катарины — изгнание, худшая — смерть! И теперь ей предстоит сделать всё, чтобы своими руками создать новое счастливое будущее! Вот так и начинается эта любовная комедия, полная забавных недоразумений… © Crunchyroll-Качество: WEBRip 1080p
Формат: MKV ([email protected] AVC)
Видео: 1920x1080, ~ 8 000 kb/s, 23.976 FPS. 8 bits
Аудио RUS: AAC LC, ~ 127 kb/s, 2 channels, 48.0 kHz
Аудио JAP: AAC LC, ~ 128 kb/s, 2 channels, 48.0 kHz-

Скриншоты

MediaInfo

General
Unique ID : 14149650010100180580505172192020574412 (0xAA51F9B72CD9F21206CAD42DADAB0CC)
Complete name : D:\[Fortuna.TV] Otome Game no Hametsu Flag shika Nai Akuyaku Reijou ni Tensei Shiteshimatta - 01.mkv
Format : Matroska
Format version : Version 4
File size : 1.42 GiB
Duration : 24 min 50 s
Overall bit rate : 8 171 kb/s
Encoded date : UTC 2020-05-14 09:36:59
Writing application : mkvmerge v39.0.0 ('In The Waiting Line') 64-bit
Writing library : libebml v1.3.9 + libmatroska v1.5.2
Video
ID : 1
Format : AVC
Format/Info : Advanced Video Codec
Format profile : [email protected]
Format settings : CABAC / 4 Ref Frames
Format settings, CABAC : Yes
Format settings, Reference frames : 4 frames
Codec ID : V_MPEG4/ISO/AVC
Duration : 24 min 49 s
Bit rate : 8 000 kb/s
Width : 1 920 pixels
Height : 1 080 pixels
Display aspect ratio : 16:9
Frame rate mode : Variable
Frame rate : 23.815 FPS
Color space : YUV
Chroma subsampling : 4:2:0
Bit depth : 8 bits
Scan type : Progressive
Bits/(Pixel*Frame) : 0.162
Stream size : 1.37 GiB (97%)
Writing library : x264 core 142
Encoding settings : cabac=1 / ref=4 / deblock=1:1:1 / analyse=0x3:0x113 / me=umh / subme=8 / psy=1 / psy_rd=0.40:0.00 / mixed_ref=1 / me_range=16 / chroma_me=1 / trellis=1 / 8x8dct=1 / cqm=0 / deadzone=21,11 / fast_pskip=1 / chroma_qp_offset=-2 / threads=12 / lookahead_threads=2 / sliced_threads=0 / nr=0 / decimate=1 / interlaced=0 / bluray_compat=0 / constrained_intra=0 / bframes=0 / weightp=2 / keyint=96 / keyint_min=48 / scenecut=40 / intra_refresh=0 / rc_lookahead=48 / rc=2pass / mbtree=1 / bitrate=8000 / ratetol=1.0 / qcomp=0.60 / qpmin=0 / qpmax=69 / qpstep=4 / cplxblur=20.0 / qblur=0.5 / vbv_maxrate=12000 / vbv_bufsize=18000 / nal_hrd=none / filler=0 / ip_ratio=1.40 / aq=1:0.60
Default : Yes
Forced : No
Audio #1
ID : 2
Format : AAC LC
Format/Info : Advanced Audio Codec Low Complexity
Codec ID : A_AAC-2
Duration : 24 min 50 s
Bit rate : 127 kb/s
Channel(s) : 2 channels
Channel layout : L R
Sampling rate : 44.1 kHz
Frame rate : 43.066 FPS (1024 SPF)
Compression mode : Lossy
Delay relative to video : 5 ms
Stream size : 22.6 MiB (2%)
Title : Crunchyroll
Language : Russian
Default : Yes
Forced : No
Audio #2
ID : 3
Format : AAC LC
Format/Info : Advanced Audio Codec Low Complexity
Codec ID : A_AAC-2
Duration : 24 min 50 s
Bit rate : 128 kb/s
Channel(s) : 2 channels
Channel layout : L R
Sampling rate : 44.1 kHz
Frame rate : 43.066 FPS (1024 SPF)
Compression mode : Lossy
Stream size : 22.7 MiB (2%)
Language : Japanese
Default : No
Forced : No
Text #1
ID : 4
Format : ASS
Codec ID : S_TEXT/ASS
Codec ID/Info : Advanced Sub Station Alpha
Duration : 15 min 8 s
Bit rate : 43 b/s
Count of elements : 25
Compression mode : Lossless
Stream size : 4.86 KiB (0%)
Title : Надписи
Language : Russian
Default : No
Forced : No
Text #2
ID : 5
Format : ASS
Codec ID : S_TEXT/ASS
Codec ID/Info : Advanced Sub Station Alpha
Duration : 24 min 33 s
Bit rate : 277 b/s
Count of elements : 448
Compression mode : Lossless
Stream size : 49.9 KiB (0%)
Title : Crunchyroll
Language : Russian
Default : No
Forced : No
Релиз от: Fartuna.TV-25.06.2020 обновлено. Добавлены все серии. Приятного просмотра. Релиз завершён.

Релиз подготовлен Fortuna.TV

[korsars.info].t28724.torrent 
Торрент: Зарегистрирован [ 2020-06-25 20:14 ] · F85F8A49432B403A9EF43923AE88AE790A56579C

Скачать .torrent

Размер .torrent файла 43 KB

Статус: проверено
.torrent скачан: 18 раз
Размер: 16,41 GB
Правила
Rentgen(24-Май-20), deadmauvlad(27-Май-20)
Похожие темы





Последний раз редактировалось: loe3df (2020-06-25 20:14), всего редактировалось 3 раз(а)
[Профиль] [ЛС]

Rentgen

Оффлайн

Медали


Пол: Не указан

Стаж: 5 месяцев 15 дней

Наличие запрета:

Сообщений: 27

Отдача: не определено

Загрузка: не определено

Нажми

Создавать темы 24-Май-2020 15:55 (спустя 10 дней)

[Цитировать]

Как по мне вся озвучка на любой из ныне выходящих сериалов у Crunchyroll крайне слабая, голоса подобраны совсем неподходящие.
Как-то сравнивал озвучку от Crunchyroll и AniLibria.TV в сериале Darling in the Franxx у обоих проектов одни и те же были субтитры при чтении.
Но больше всего голоса подошли именно от проекта AniLibria.TV там вообще самый шикарный у них получился эпизод - сказка.
Когда ГГ и героиня ещё в детстве встретились друг с другом (очень душевно и приятно, было слушать и смотреть).
А вот Crunchyroll были словно камень, им дали текст они зачитали и всё на том.
Подозреваю что и тут особо ни чем не запомнятся, при том что придётся вновь их сравнивать с проектами, которые смотрел до появления данного релиза (а именно с AniMedia.TV и AniLibria.TV).
А ведь этот сериал, один из самых забавных в сезоне + одна из самых запоминающихся героинь.
[Профиль] [ЛС]

4udaki

Оффлайн

Медали


Пол: Мужской

Стаж: 5 лет 8 месяцев

Наличие запрета:

Сообщений: 7434

Откуда: korsars.info

Отдача: 2 Mb/s

Загрузка: 20 Mb/s

Нажми

Создавать темы 24-Май-2020 21:25 (спустя 5 часов)

[Цитировать]

box-art

[img]http://c.radikal.ru/c21/2005/b9/a56c7cb6d5e8.png[/img]
[Профиль] [ЛС]

deadmauvlad

Оффлайн

Медали


Пол: Мужской

Стаж: 3 месяца 13 дней

Наличие запрета:

Сообщений: 29

Откуда: Siberian Republic

Отдача: не определено

Загрузка: не определено

Нажми

Создавать темы 27-Май-2020 09:48 (спустя 2 дня 12 часов)

[Цитировать]

Rentgen, Звучит как реклама анилибрии. Преданный фанат #Залюпина он же (Александр Парфёнов )? ap ae
[Профиль] [ЛС]

Rentgen

Оффлайн

Медали


Пол: Не указан

Стаж: 5 месяцев 15 дней

Наличие запрета:

Сообщений: 27

Отдача: не определено

Загрузка: не определено

Нажми

Создавать темы 31-Май-2020 17:41 (спустя 4 дня)

[Цитировать]

deadmauvlad,
Глупости, я смотрел озвучки всех проектов, так или иначе связанных с аниме.
И далеко не во всем конкретно тот проект, озвучивал лучше, бывали и у них так себе варианты.
Да что там, даже сейчас один из топовых сериалов Башня Бога, мне в их варианте озвучка нравится меньше.
И в итоге получается солянка, где-то 1 проект звучит убедительнее, где-то другой (идеальных фаворитов до сих пор нет).
З.ы. а что касательно ваканима, там просто адаптация лучше, но опять же со своими оговорками.
[Профиль] [ЛС]

Rentgen

Оффлайн

Медали


Пол: Не указан

Стаж: 5 месяцев 15 дней

Наличие запрета:

Сообщений: 27

Отдача: не определено

Загрузка: не определено

Нажми

Создавать темы 25-Июн-2020 00:25 (спустя 24 дня)

[Цитировать]

И в итоге, понравилось больше всего от стороннего проекта, о котором писал в самом начале.
Вот что любопытно, именно здесь голоса от Crunchyroll были подобраны лучше, под персонажей.
Смотреть было даже возможно приятно.-Не же ли скажем в сериале Власть книжного червя [ТВ-2] | Honzuki no Gekokujou: Shisho ni Naru Tame ni wa Shudan o Erande Iraremasen.
Где были какие-то эксперименты со сменой ролей (то сначала Анкорд звучит определённых персонажей, то тех же самых но уже в другом эпизоде, кто-то другой кого я не знаю, та ж ситуация и с женскими ролями, сначала вроде идёт отыгрыш детского голоса а потом вдруг голосом бабушки, звучат мысли всё той же маленькой героини Майн).
Да, героиня была изначально взрослой, но ведь не в теле старушки (в общем крайне неудачное как по мне решение).
[Профиль] [ЛС]
Показать сообщения:    
Ответить на тему

Текущее время: 10-Июл 17:12

Часовой пояс: UTC + 4



Вы не можете начинать темы
Вы не можете отвечать на сообщения
Вы не можете редактировать свои сообщения
Вы не можете удалять свои сообщения
Вы не можете голосовать в опросах
Вы не можете прикреплять файлы к сообщениям
Вы можете скачивать файлы
Анализ сайта korsars.info Яндекс.Метрика