Защищая Джейкоба / Defending Jacob [01x01-06 из 08] (2020) WEB-DL 1080p | Flarrow Films

Ответить на тему
Статистика раздачи [Обновить пиров]
Размер:  20,66 GB   |    Зарегистрирован:  8 дней   |    .torrent скачан:  4 раза
Раздают:  14  [  0 KB/s  ]   Качают:  27  [  0 KB/s  ]   Подробная статистика пиров
 
   
 
 
Автор Сообщение

flarrowfilms ®

Оффлайн

Медали
Друг трекераСупер Мега Контер Квейк


Пол: Не указан

Стаж: 2 месяца 1 день

Наличие запрета:

Сообщений: 12

Отдача: 5 Mb/s

Загрузка: 5 Mb/s

Нажми

Создавать темы 16-Май-2020 21:48

[Цитировать]

Информация о фильме
Название: Защищая Джейкоба
Оригинальное название: Defending Jacob
Год выхода: 2020
Жанр: триллер, драма, детектив
Режиссеры: Мортен Тильдум
В ролях: Крис Эванс, Мишель Докери, Бетти Гэбриел, Сакина Джаффри, Черри Джонс, Брэдли Райан Книспел, Джейден Мартелл, Пабло Шрайбер, Джордан Алекса Дэвис, Дэниэл Хеншэлл
О фильме:
В одном из районов Бостона произошло жестокое убийство школьника. Подозревается друг и одноклассник погибшего Джейкоб, сын помощника окружного прокурора. Все улики указывают на Джейкоба, но отец отказывается верить в виновность сына и должен выбрать, что для него важнее — правосудие или семья.

Страна: США
Продолжительность: ~ 00:45:23 (серия)
Перевод: Профессиональный (многоголосый, закадровый) | Flarrow Films
Роли озвучивали: Денис Кузьмичёв, Ахилл Намазов, Алексей Ядренников, Семён Евсиков, Анастасия Скачкова, Лола Бугурт и Рина Чернышова.
Файл
Формат: MKV
Кодек: MPEG-4 AVC
Качество: WEB-DL 1080p
Видео: 1 920х958, ~ 10.0 Mb/s, 23.976 FPS, 8 bits
Звук: AC-3, 320 kb/s, 2 channels, 48.0 kHz
Субтитры: отсутствуют-

MediaInfo

1-я серия
General
Unique ID : 89478070511913498121505906000091544593 (0x4350D97B392B9C25F893E9009BB5FC11)
Complete name : C:\Flarrow\Defending.Jacob.S01.Flarrow.Films\Defending.Jacob.S01E01.mkv
Format : Matroska
Format version : Version 4
File size : 3.28 GiB
Duration : 45 min 23 s
Overall bit rate : 10.3 Mb/s
Encoded date : UTC 2020-04-26 16:59:47
Writing application : mkvmerge v32.0.0 ('Astral Progressions') 64-bit
Writing library : libebml v1.3.7 + libmatroska v1.5.0
Video
ID : 1
Format : AVC
Format/Info : Advanced Video Codec
Format profile : [email protected]
Format settings : CABAC / 4 Ref Frames
Format settings, CABAC : Yes
Format settings, Reference : 4 frames
Codec ID : V_MPEG4/ISO/AVC
Duration : 45 min 22 s
Bit rate : 10.0 Mb/s
Width : 1 920 pixels
Height : 958 pixels
Display aspect ratio : 2.004
Frame rate mode : Constant
Frame rate : 23.976 (24000/1001) FPS
Color space : YUV
Chroma subsampling : 4:2:0
Bit depth : 8 bits
Scan type : Progressive
Bits/(Pixel*Frame) : 0.227
Stream size : 3.17 GiB (97%)
Default : Yes
Forced : No
Color range : Limited
Color primaries : BT.709
Transfer characteristics : BT.709
Matrix coefficients : BT.709
Audio
ID : 2
Format : AC-3
Format/Info : Audio Coding 3
Commercial name : Dolby Digital
Codec ID : A_AC3
Duration : 45 min 23 s
Bit rate mode : Constant
Bit rate : 320 kb/s
Channel(s) : 2 channels
Channel layout : L R
Sampling rate : 48.0 kHz
Frame rate : 31.250 FPS (1536 SPF)
Compression mode : Lossy
Stream size : 104 MiB (3%)
Service kind : Complete Main
Default : Yes
Forced : No
2-я серия
General
Unique ID : 247433369182235381545300222827128051410 (0xBA25EEF9850CE73D4D54DB75BF7256D2)
Complete name : C:\Flarrow\Defending.Jacob.S01.Flarrow.Films\Defending.Jacob.S01E02.mkv
Format : Matroska
Format version : Version 4
File size : 3.26 GiB
Duration : 45 min 8 s
Overall bit rate : 10.3 Mb/s
Encoded date : UTC 2020-04-26 17:03:47
Writing application : mkvmerge v32.0.0 ('Astral Progressions') 64-bit
Writing library : libebml v1.3.7 + libmatroska v1.5.0
Video
ID : 1
Format : AVC
Format/Info : Advanced Video Codec
Format profile : [email protected]
Format settings : CABAC / 4 Ref Frames
Format settings, CABAC : Yes
Format settings, Reference : 4 frames
Codec ID : V_MPEG4/ISO/AVC
Duration : 45 min 7 s
Bit rate : 10.0 Mb/s
Width : 1 920 pixels
Height : 960 pixels
Display aspect ratio : 2.000
Frame rate mode : Constant
Frame rate : 23.976 (24000/1001) FPS
Color space : YUV
Chroma subsampling : 4:2:0
Bit depth : 8 bits
Scan type : Progressive
Bits/(Pixel*Frame) : 0.227
Stream size : 3.16 GiB (97%)
Default : Yes
Forced : No
Color range : Limited
Color primaries : BT.709
Transfer characteristics : BT.709
Matrix coefficients : BT.709
Audio
ID : 2
Format : AC-3
Format/Info : Audio Coding 3
Commercial name : Dolby Digital
Codec ID : A_AC3
Duration : 45 min 8 s
Bit rate mode : Constant
Bit rate : 320 kb/s
Channel(s) : 2 channels
Channel layout : L R
Sampling rate : 48.0 kHz
Frame rate : 31.250 FPS (1536 SPF)
Compression mode : Lossy
Stream size : 103 MiB (3%)
Service kind : Complete Main
Default : Yes
Forced : No
3-я серия
General
Unique ID : 110641817689326946659050780447656430842 (0x533CD6C752BDE07508BF8E3C8FC4CCFA)
Complete name : C:\Flarrow\Defending.Jacob.S01.Flarrow.Films\Defending.Jacob.S01E03.mkv
Format : Matroska
Format version : Version 4
File size : 3.67 GiB
Duration : 50 min 40 s
Overall bit rate : 10.4 Mb/s
Encoded date : UTC 2020-04-26 17:11:13
Writing application : mkvmerge v32.0.0 ('Astral Progressions') 64-bit
Writing library : libebml v1.3.7 + libmatroska v1.5.0
Video
ID : 1
Format : AVC
Format/Info : Advanced Video Codec
Format profile : [email protected]
Format settings : CABAC / 4 Ref Frames
Format settings, CABAC : Yes
Format settings, Reference : 4 frames
Codec ID : V_MPEG4/ISO/AVC
Duration : 50 min 38 s
Bit rate : 10.0 Mb/s
Width : 1 920 pixels
Height : 960 pixels
Display aspect ratio : 2.000
Frame rate mode : Constant
Frame rate : 23.976 (24000/1001) FPS
Color space : YUV
Chroma subsampling : 4:2:0
Bit depth : 8 bits
Scan type : Progressive
Bits/(Pixel*Frame) : 0.227
Stream size : 3.55 GiB (97%)
Default : Yes
Forced : No
Color range : Limited
Color primaries : BT.709
Transfer characteristics : BT.709
Matrix coefficients : BT.709
Audio
ID : 2
Format : AC-3
Format/Info : Audio Coding 3
Commercial name : Dolby Digital
Codec ID : A_AC3
Duration : 50 min 40 s
Bit rate mode : Constant
Bit rate : 320 kb/s
Channel(s) : 2 channels
Channel layout : L R
Sampling rate : 48.0 kHz
Frame rate : 31.250 FPS (1536 SPF)
Compression mode : Lossy
Stream size : 116 MiB (3%)
Service kind : Complete Main
Default : Yes
Forced : No
-

Скриншоты

-Релиз от: Flarrow Films
Примечание: Без интро Flarrow Films- -
[korsars.info].t28792.torrent 
Торрент: Зарегистрирован [ 2020-05-16 21:48 ] · 9684B21915D95C0B553C10D9DFA688AECD29FC2C

Скачать .torrent

Скачать .torrent

52 KB

Статус: проверено
.torrent скачан: 4 раз
Размер: 20,66 GB
Правила
Похожие темы

[Профиль] [ЛС]
Показать сообщения:    
Ответить на тему

Текущее время: 25-Май 20:53

Часовой пояс: UTC + 4



Вы не можете начинать темы
Вы не можете отвечать на сообщения
Вы не можете редактировать свои сообщения
Вы не можете удалять свои сообщения
Вы не можете голосовать в опросах
Вы не можете прикреплять файлы к сообщениям
Вы можете скачивать файлы
Анализ сайта korsars.info Яндекс.Метрика