Мутанты черепашки ниндзя / Teenage Mutant Ninja Turtles [S01] (2003) DVDRip 720p (upscale) | Flarrow Films

Ответить на тему
Статистика раздачи [Обновить пиров]
Размер:  10,44 GB   |    Зарегистрирован:  7 дней   |    .torrent скачан:  5 раз
Раздают:  1  [  0 KB/s  ]   Качают:  1  [  0 KB/s  ]   Подробная статистика пиров
 
   
 
 
 
Автор Сообщение

flarrowfilms ®

Оффлайн

Медали
Друг трекераСупер Мега Контер Квейк


Пол: Не указан

Стаж: 2 месяца 1 день

Наличие запрета:

Сообщений: 12

Отдача: 5 Mb/s

Загрузка: 5 Mb/s

Нажми

Создавать темы 18-Май-2020 21:20

[Цитировать]

Информация о фильме
Название: Мутанты черепашки ниндзя
Оригинальное название: Teenage Mutant Ninja Turtles
Год выхода: 2003
Жанр: мультфильм, фантастика, боевик, триллер, комедия, приключения
Режиссеры: Рой Бурдин, Чак Паттон
В ролях: Майкл Синтерниклаас, Уэйн Грэйсон, Грегори Аббей, Сэм Ригел, Даррен Данстэн, Марк Томпсон, Вероника Тейлор, Шон Шеммель, Дэвид Зен Мансли, Скотт Рэйоу
О фильме:
Черепашки-ниндзя мешают планам таинственного клана, главой которого является их заклятый враг Шреддер. Неожиданные приключения приведут героев в панцирях в космос, в феодальную Японию и даже в киберпространство.

Страна: США
Продолжительность: ~ 00:22:10 (серия)
Перевод: Профессиональный (многоголосый, закадровый) | Flarrow Films
Роли озвучивали: Денис Кузьмичёв, Ахилл Намазов, Евгений Леонов, Семён Евсиков, Константин Федосеев, Андрей Бригиневич, Рина Чернышова, Рута Новикова, Андрей Лысенко и Дмитрий Лунёв.
Вокал: Jackie-O.
Файл
Формат: MKV
Кодек: MPEG-4 AVC
Качество: DVDRip 720p upscale
Видео: 960х720, ~ 2 397 kb/s, 29.970 FPS, 8 bits
Звук: AC-3, 320 kb/s, 2 channels, 48.0 kHz
Субтитры: отсутствуют-

MediaInfo

1-я серия
General
Unique ID : 266507658944937962577553210218645656144 (0xC87F821156932B4D53DB3C1E6F219250)
Complete name : Teenage Mutant Ninja Turtles (2003) - s01e01.mkv
Format : Matroska
Format version : Version 4
File size : 431 MiB
Duration : 22 min 10 s
Overall bit rate : 2 717 kb/s
Encoded date : UTC 2020-05-15 19:20:36
Writing application : mkvmerge v32.0.0 ('Astral Progressions') 64-bit
Writing library : libebml v1.3.7 + libmatroska v1.5.0
Video
ID : 1
Format : AVC
Format/Info : Advanced Video Codec
Format profile : [email protected]
Format settings : CABAC / 4 Ref Frames
Format settings, CABAC : Yes
Format settings, Reference : 4 frames
Codec ID : V_MPEG4/ISO/AVC
Duration : 22 min 9 s
Bit rate : 2 397 kb/s
Width : 960 pixels
Height : 720 pixels
Display aspect ratio : 4:3
Frame rate mode : Constant
Frame rate : 29.970 (30000/1001) FPS
Color space : YUV
Chroma subsampling : 4:2:0
Bit depth : 8 bits
Scan type : Progressive
Bits/(Pixel*Frame) : 0.116
Stream size : 380 MiB (88%)
Writing library : x264 core 152 r2851 ba24899
Encoding settings : cabac=1 / ref=4 / deblock=1:0:0 / analyse=0x3:0x133 / me=umh / subme=10 / psy=1 / psy_rd=0.40:0.00 / mixed_ref=1 / me_range=24 / chroma_me=1 / trellis=2 / 8x8dct=1 / cqm=0 / deadzone=21,11 / fast_pskip=1 / chroma_qp_offset=-2 / threads=6 / lookahead_threads=1 / sliced_threads=0 / nr=0 / decimate=1 / interlaced=0 / bluray_compat=0 / constrained_intra=0 / bframes=4 / b_pyramid=2 / b_adapt=2 / b_bias=0 / direct=3 / weightb=1 / open_gop=0 / weightp=2 / keyint=300 / keyint_min=30 / scenecut=40 / intra_refresh=0 / rc_lookahead=60 / rc=crf / mbtree=1 / crf=17.0 / qcomp=0.60 / qpmin=0 / qpmax=69 / qpstep=4 / vbv_maxrate=25000 / vbv_bufsize=25000 / crf_max=0.0 / nal_hrd=none / filler=0 / ip_ratio=1.40 / aq=1:1.00
Default : Yes
Forced : No
Audio
ID : 2
Format : AC-3
Format/Info : Audio Coding 3
Commercial name : Dolby Digital
Codec ID : A_AC3
Duration : 22 min 10 s
Bit rate mode : Constant
Bit rate : 320 kb/s
Channel(s) : 2 channels
Channel layout : L R
Sampling rate : 48.0 kHz
Frame rate : 31.250 FPS (1536 SPF)
Compression mode : Lossy
Stream size : 50.8 MiB (12%)
Service kind : Complete Main
Default : Yes
Forced : No
2-я серия
General
Unique ID : 189534501736681110671696925875993568584 (0x8E970469C510C4CE9BE14AA53A3BE548)
Complete name : Teenage Mutant Ninja Turtles (2003) - s01e02.mkv
Format : Matroska
Format version : Version 4
File size : 441 MiB
Duration : 22 min 9 s
Overall bit rate : 2 787 kb/s
Encoded date : UTC 2020-05-15 19:22:38
Writing application : mkvmerge v32.0.0 ('Astral Progressions') 64-bit
Writing library : libebml v1.3.7 + libmatroska v1.5.0
Video
ID : 1
Format : AVC
Format/Info : Advanced Video Codec
Format profile : [email protected]
Format settings : CABAC / 4 Ref Frames
Format settings, CABAC : Yes
Format settings, Reference : 4 frames
Codec ID : V_MPEG4/ISO/AVC
Duration : 22 min 7 s
Bit rate : 2 466 kb/s
Width : 960 pixels
Height : 720 pixels
Display aspect ratio : 4:3
Frame rate mode : Constant
Frame rate : 29.970 (30000/1001) FPS
Color space : YUV
Chroma subsampling : 4:2:0
Bit depth : 8 bits
Scan type : Progressive
Bits/(Pixel*Frame) : 0.119
Stream size : 390 MiB (88%)
Writing library : x264 core 152 r2851 ba24899
Encoding settings : cabac=1 / ref=4 / deblock=1:0:0 / analyse=0x3:0x133 / me=umh / subme=10 / psy=1 / psy_rd=0.40:0.00 / mixed_ref=1 / me_range=24 / chroma_me=1 / trellis=2 / 8x8dct=1 / cqm=0 / deadzone=21,11 / fast_pskip=1 / chroma_qp_offset=-2 / threads=6 / lookahead_threads=1 / sliced_threads=0 / nr=0 / decimate=1 / interlaced=0 / bluray_compat=0 / constrained_intra=0 / bframes=4 / b_pyramid=2 / b_adapt=2 / b_bias=0 / direct=3 / weightb=1 / open_gop=0 / weightp=2 / keyint=300 / keyint_min=30 / scenecut=40 / intra_refresh=0 / rc_lookahead=60 / rc=crf / mbtree=1 / crf=17.0 / qcomp=0.60 / qpmin=0 / qpmax=69 / qpstep=4 / vbv_maxrate=25000 / vbv_bufsize=25000 / crf_max=0.0 / nal_hrd=none / filler=0 / ip_ratio=1.40 / aq=1:1.00
Default : Yes
Forced : No
Audio
ID : 2
Format : AC-3
Format/Info : Audio Coding 3
Commercial name : Dolby Digital
Codec ID : A_AC3
Duration : 22 min 9 s
Bit rate mode : Constant
Bit rate : 320 kb/s
Channel(s) : 2 channels
Channel layout : L R
Sampling rate : 48.0 kHz
Frame rate : 31.250 FPS (1536 SPF)
Compression mode : Lossy
Stream size : 50.7 MiB (11%)
Service kind : Complete Main
Default : Yes
Forced : No
3-я серия
General
Unique ID : 30770804672261047507654614589822226227 (0x17263DCD400E759241F99F6BD2904F33)
Complete name : Teenage Mutant Ninja Turtles (2003) - s01e03.mkv
Format : Matroska
Format version : Version 4
File size : 397 MiB
Duration : 22 min 4 s
Overall bit rate : 2 514 kb/s
Encoded date : UTC 2020-05-15 19:23:46
Writing application : mkvmerge v32.0.0 ('Astral Progressions') 64-bit
Writing library : libebml v1.3.7 + libmatroska v1.5.0
Video
ID : 1
Format : AVC
Format/Info : Advanced Video Codec
Format profile : [email protected]
Format settings : CABAC / 4 Ref Frames
Format settings, CABAC : Yes
Format settings, Reference : 4 frames
Codec ID : V_MPEG4/ISO/AVC
Duration : 22 min 3 s
Bit rate : 2 194 kb/s
Width : 960 pixels
Height : 720 pixels
Display aspect ratio : 4:3
Frame rate mode : Constant
Frame rate : 29.970 (30000/1001) FPS
Color space : YUV
Chroma subsampling : 4:2:0
Bit depth : 8 bits
Scan type : Progressive
Bits/(Pixel*Frame) : 0.106
Stream size : 346 MiB (87%)
Writing library : x264 core 152 r2851 ba24899
Encoding settings : cabac=1 / ref=4 / deblock=1:0:0 / analyse=0x3:0x133 / me=umh / subme=10 / psy=1 / psy_rd=0.40:0.00 / mixed_ref=1 / me_range=24 / chroma_me=1 / trellis=2 / 8x8dct=1 / cqm=0 / deadzone=21,11 / fast_pskip=1 / chroma_qp_offset=-2 / threads=6 / lookahead_threads=1 / sliced_threads=0 / nr=0 / decimate=1 / interlaced=0 / bluray_compat=0 / constrained_intra=0 / bframes=4 / b_pyramid=2 / b_adapt=2 / b_bias=0 / direct=3 / weightb=1 / open_gop=0 / weightp=2 / keyint=300 / keyint_min=30 / scenecut=40 / intra_refresh=0 / rc_lookahead=60 / rc=crf / mbtree=1 / crf=17.0 / qcomp=0.60 / qpmin=0 / qpmax=69 / qpstep=4 / vbv_maxrate=25000 / vbv_bufsize=25000 / crf_max=0.0 / nal_hrd=none / filler=0 / ip_ratio=1.40 / aq=1:1.00
Default : Yes
Forced : No
Audio
ID : 2
Format : AC-3
Format/Info : Audio Coding 3
Commercial name : Dolby Digital
Codec ID : A_AC3
Duration : 22 min 4 s
Bit rate mode : Constant
Bit rate : 320 kb/s
Channel(s) : 2 channels
Channel layout : L R
Sampling rate : 48.0 kHz
Frame rate : 31.250 FPS (1536 SPF)
Compression mode : Lossy
Stream size : 50.5 MiB (13%)
Service kind : Complete Main
Default : Yes
Forced : No
-

Скриншоты

-Релиз от: Flarrow Films
Примечание: Без интро Flarrow Films- -
[korsars.info].t28841.torrent 
Торрент: Зарегистрирован [ 2020-05-18 21:20 ] · 1CBD6A3B0B35600C2411EF1A452A24454AEDA59D

Скачать .torrent

Скачать .torrent

28 KB

Статус: проверено
.torrent скачан: 5 раз
Размер: 10,44 GB
Правила
Похожие темы

[Профиль] [ЛС]
Показать сообщения:    
Ответить на тему

Текущее время: 25-Май 21:25

Часовой пояс: UTC + 4



Вы не можете начинать темы
Вы не можете отвечать на сообщения
Вы не можете редактировать свои сообщения
Вы не можете удалять свои сообщения
Вы не можете голосовать в опросах
Вы не можете прикреплять файлы к сообщениям
Вы можете скачивать файлы
Анализ сайта korsars.info Яндекс.Метрика