Демона с прогиба / Дропкик злого духа / Jashin-chan Dropkick [S01+Спешл] (2018) BDRip от Deadmauvlad | L | Anilibria

Ответить на тему
Статистика раздачи [Обновить пиров]
Размер:  4,09 GB   |    Зарегистрирован:  6 дней   |    .torrent скачан:  0 раз
Раздают:  2  [  0 KB/s  ]   Качают:  3  [  0 KB/s  ]   Подробная статистика пиров
 
   
 
 
 
Автор Сообщение

4udaki ®

Онлайн

Медали


Пол: Мужской

Стаж: 5 лет 6 месяцев

Наличие запрета:

Сообщений: 6878

Откуда: korsars.info

Отдача: 2 Mb/s

Загрузка: 20 Mb/s

Нажми

Создавать темы 19-Май-2020 09:00

[Цитировать]

Информация о фильме
Название: Дропкик злого духа
Оригинальное название: Jashin-chan Dropkick
Год выхода:2018
Жанр: комедия, сверхъестественное, сэйнэн
Режиссер: Сато Хикару
Автор оригинала: Юкио
Снято по манге: Jashin-chan Dropkick
Возрастное ограничение: 16+
О фильме: Аниме-адаптация манги «Дропкик злого духа», сочетающая в себе элементы насилия и эксцентрической комедии. Готическая лолита по имени Юринэ Ханазоно, увлекающаяся оккультизмом, волею случая призывает злого духа Джашин-чан и становится её повелителем. Такой исход событий категорически не нравится Джашин-чан, и она хочет вернуться обратно в Ад, что возможно только при гибели призывателя. До тех пор Джашин-чан служит Юринэ фамильяром и занимается работой по дому, попутно строя планы по убийству своей хозяйки, которые в большинстве своём провальные и оборачиваются избиением духа с невероятной жестокостью.
-

Страна: Япония
Студия: Nomad
Продолжительность: 12 серий x ~ 00:24:00
Перевод: Любительский (многоголосый, закадровый) Silv & Cleo-chan & Gomer (AniLibria)
Качество: BDRip [**Исходник: BDRemux 1080p thx antiBILLotic]
Контейнер: AVI
Кодек: XviD
Видео: 720x400 (16:9), 23.976 fps, 1 645 kb/s (0.238 bit/pixel)
Аудио №1: AC-3, 48,0 КГц, 2 ch, 192 Кбит/сек, CBR | | Anilibria
Аудио №2: AC-3, 48,0 КГц, 2 ch, 192 Кбит/сек, CBR | | Japan
Русские Субтитры: Есть (Полный Перевод / Надписи)-

Хронология

#1 >>>Дропкик злого духа [ТВ-1] - ТВ (12 эп.), адаптация манги, 2018 (Есть в раздаче)
#2 Дропкик злого духа [ТВ-2] - ТВ, продолжение, 2020 (Анонсирован 2 ой сезон)

MediaInfo

General
Complete name : [Deadmau- RAWS] Jashin.chan.Dropkick.S01.Rus.Jap.BDRip.Deadmauvlad.Ep.01.avi
Format : AVI
Format/Info : Audio Video Interleave
File size : 346 MiB
Duration : 23 min 41 s
Overall bit rate : 2 043 kb/s
Movie name : [Deadmau- RAWS] Jashin.chan.Dropkick.S01.Rus.Jap.BDRip.Deadmauvlad.Ep.01
Director : Encoder by Deadmauvlad
Genre : комедия, сверхъестественное
Writing application : VirtualDubMod 1.5.10.3 | www.virtualdub-fr.org || (build 2550/release)
Original source form/Name : Аниме
Copyright : Encoder by Deadmauvlad
Comment : Encoder by Deadmauvlad
Video
ID : 0
Format : MPEG-4 Visual
Format profile : Advanced [email protected]
Format settings : BVOP1 / Custom Matrix
Format settings, BVOP : 1
Format settings, QPel : No
Format settings, GMC : No warppoints
Format settings, Matrix : Custom
Codec ID : XVID
Codec ID/Hint : XviD
Duration : 23 min 41 s
Bit rate : 1 645 kb/s
Width : 720 pixels
Height : 400 pixels
Display aspect ratio : 16:9
Frame rate : 23.976 (24000/1001) FPS
Color space : YUV
Chroma subsampling : 4:2:0
Bit depth : 8 bits
Scan type : Progressive
Compression mode : Lossy
Bits/(Pixel*Frame) : 0.238
Stream size : 279 MiB (80%)
Writing library : XviD 73
Audio #1
ID : 1
Format : AC-3
Format/Info : Audio Coding 3
Commercial name : Dolby Digital
Codec ID : 2000
Duration : 23 min 41 s
Bit rate mode : Constant
Bit rate : 192 kb/s
Channel(s) : 2 channels
Channel layout : L R
Sampling rate : 48.0 kHz
Frame rate : 31.250 FPS (1536 SPF)
Bit depth : 16 bits
Compression mode : Lossy
Stream size : 32.5 MiB (9%)
Alignment : Split accross interleaves
Interleave, duration : 42 ms (1.00 video frame)
Interleave, preload duration : 500 ms
Audio #2
ID : 2
Format : AC-3
Format/Info : Audio Coding 3
Commercial name : Dolby Digital
Codec ID : 2000
Duration : 23 min 41 s
Bit rate mode : Constant
Bit rate : 192 kb/s
Channel(s) : 2 channels
Channel layout : L R
Sampling rate : 48.0 kHz
Frame rate : 31.250 FPS (1536 SPF)
Bit depth : 16 bits
Compression mode : Lossy
Stream size : 32.5 MiB (9%)
Alignment : Split accross interleaves
Interleave, duration : 42 ms (1.00 video frame)
Interleave, preload duration : 500 ms
-

Папка Bonus содержит

Оригинальные Опенинг и Эндинг без титров
-

Скриншоты

Релиз / Автор рипа: >Deadmauvlad <
[korsars.info].t28850.torrent 
Торрент: Зарегистрирован [ 2020-05-19 09:00 ] · 2EBF3F01F5288A773117BA22E7F1AF273E4F45C7

Скачать .torrent

Скачать .torrent

11 KB

Статус: проверено
.torrent скачан: 0 раз
Размер: 4,09 GB
Правила
Похожие темы

[Профиль] [ЛС]
Показать сообщения:    
Ответить на тему

Текущее время: 25-Май 20:59

Часовой пояс: UTC + 4



Вы не можете начинать темы
Вы не можете отвечать на сообщения
Вы не можете редактировать свои сообщения
Вы не можете удалять свои сообщения
Вы не можете голосовать в опросах
Вы не можете прикреплять файлы к сообщениям
Вы можете скачивать файлы
Анализ сайта korsars.info Яндекс.Метрика