Рандеву с жизнью 2 / Date A Live II [S02] (2014) BDRip 1080p от Fartuna.TV | StudioBand

Ответить на тему
Статистика раздачи [Обновить пиров]
Размер:  13,24 GB   |    Зарегистрирован:  5 дней   |    .torrent скачан:  7 раз

Полного источника не было: 9 часов

Качают:  2  [  0 KB/s  ]   Подробная статистика пиров
 
   
 
 
 
Автор Сообщение

loe3df ®

Онлайн

Медали


Пол: Не указан

Стаж: 4 месяца 11 дней

Наличие запрета:

Сообщений: 45

Отдача: не определено

Загрузка: не определено

Нажми

Создавать темы 20-Май-2020 00:59

[Цитировать]

Рандеву с жизнью 2 / Date A Live II- Год выпуска: 2014
Страна: Япония
Жанр: приключения, романтика, фантастика, мистика
Продолжительность: ~ 00:26:30 (серия)
Перевод: Дублированный | StudioBand [Wakanim]
Режиссёр: Мотонага Кэйтаро
Субтитры: Полные «GMC»-Рейтинг:
-Описание:
Загадочные Духи, разрыватели измерений, продолжают паломничество на Землю, но голубая планета уже готова к встрече! Сидо Ицука, простой японский старшеклассник и главная надежда человечества, в совершенстве овладел искусством покорять сердца девушек, чей облик раз за разом принимают могущественные пришельцы. Бомбы и ракеты больше не нужны - любовь и безграничное доверие помогают обуздать разрушительные силы. Один поцелуй и все – опасности нет, родился новый ценный член общества!
Конечно, одного Сидо для защиты Земли маловато, но у парня есть серьезные покровители, и прежде всего – тайная организация «Рататоскр» под командой его сводной сестры Котори (она же огненный дух Ифрит). Да и другие Духи, вставшие на путь исправления, всегда готовы помочь своему любимому доказать алчным хозяевам жизни, что даже с незваными гостями поступать надо по-человечески. Конечно, работа Ицуку ждет большая, но кто говорил, что будет легко?!-Качество: BDRip 1080p
Формат: MKV (High [email protected])
Видео: 1920x1080, ~ 5 189 kb/s, 23.976 FPS. 10 bits
Аудио RUS: AAC LC, ~ 129 kb/s, 2 channels, 44.1 kHz
Аудио JAP: FLAC, ~ 1 089 kb/s, 2 channels, 48.0 kHz-

Скриншоты

MediaInfo

General
Unique ID : 215068236367545738865452202456733366800 (0xA1CCA2BA00C5D3F1E4CB0B70CB4ABA10)
Complete name : H:[Fortuna.TV] DATE A LIVE II (BDRip 1920x1080 AAC Rus + Jap)\[Fortuna.TV] DATE A LIVE II - 01 (BDRip 1920x1080 AAC Rus + Jap).mkv
Format : Matroska
Format version : Version 4
File size : 1.24 GiB
Duration : 27 min 44 s
Overall bit rate mode : Variable
Overall bit rate : 6 412 kb/s
Encoded date : UTC 2020-05-14 17:42:29
Writing application : mkvmerge v39.0.0 ('In The Waiting Line') 64-bit
Writing library : libebml v1.3.9 + libmatroska v1.5.2
Attachments : FOT-PopJoy Std B.ttf / DFGHSMaruGothic-W4.ttf / FC-GyoKaishotai.ttf / FOT Rodin Pro EB.ttf / FOT Rodin Pro UB.ttf / GoudySansStd-Black.otf / HeiseiMaruGoStd-W4.ttf / HeiseiMaruGoStd-W8-CP.ttf / HGGyoshotai.ttf / HGHakushuFutoKaishotai.ttf / KozGoPr6n-M.ttf / Kozuka Mincho Pro H.ttf / KyoMadoka.ttf / LEHN091.TTF / MyriadPro-Semibold.otf / MyriadPro-SemiboldIt.otf / ScalaSans-Bold.ttf / Tellural Bold.ttf / A-OTF Kakumin Pro Bold.ttf / Bolide-Regular.ttf
Video
ID : 1
Format : AVC
Format/Info : Advanced Video Codec
Format profile : High [email protected]
Format settings : CABAC / 16 Ref Frames
Format settings, CABAC : Yes
Format settings, Reference frames : 16 frames
Codec ID : V_MPEG4/ISO/AVC
Duration : 27 min 43 s
Bit rate : 5 189 kb/s
Width : 1 920 pixels
Height : 1 080 pixels
Display aspect ratio : 16:9
Frame rate mode : Constant
Frame rate : 23.976 (24000/1001) FPS
Color space : YUV
Chroma subsampling : 4:2:0
Bit depth : 10 bits
Scan type : Progressive
Bits/(Pixel*Frame) : 0.104
Stream size : 1.00 GiB (81%)
Title : 10bit H.264 - 1080p
Writing library : x264 core 142 r2431kMod ac76440
Encoding settings : cabac=1 / ref=16 / deblock=1:0:0 / analyse=0x3:0x133 / me=umh / subme=11 / psy=1 / fade_compensate=0.00 / psy_rd=0.88:0.00 / mixed_ref=1 / me_range=24 / chroma_me=1 / trellis=2 / 8x8dct=1 / cqm=0 / deadzone=21,11 / fast_pskip=0 / chroma_qp_offset=-2 / threads=18 / lookahead_threads=4 / sliced_threads=0 / nr=0 / decimate=1 / interlaced=0 / bluray_compat=0 / constrained_intra=0 / fgo=0 / bframes=16 / b_pyramid=2 / b_adapt=2 / b_bias=0 / direct=3 / weightb=1 / open_gop=0 / weightp=2 / keyint=240 / keyint_min=24 / scenecut=40 / intra_refresh=0 / rc_lookahead=240 / rc=crf / mbtree=1 / crf=14.0000 / qcomp=0.85 / qpmin=0 / qpmax=81 / qpstep=4 / ip_ratio=1.40 / aq=3:0.80
Language : Japanese
Default : Yes
Forced : No
Color range : Limited
Color primaries : BT.709
Transfer characteristics : BT.709
Matrix coefficients : BT.709
Audio #1
ID : 2
Format : AAC LC
Format/Info : Advanced Audio Codec Low Complexity
Codec ID : A_AAC-2
Duration : 27 min 44 s
Bit rate : 129 kb/s
Channel(s) : 2 channels
Channel layout : L R
Sampling rate : 44.1 kHz
Frame rate : 43.066 FPS (1024 SPF)
Compression mode : Lossy
Stream size : 25.6 MiB (2%)
Title : Wakanim
Language : Russian
Default : Yes
Forced : No
Audio #2
ID : 3
Format : FLAC
Format/Info : Free Lossless Audio Codec
Codec ID : A_FLAC
Duration : 27 min 43 s
Bit rate mode : Variable
Bit rate : 1 089 kb/s
Channel(s) : 2 channels
Channel layout : L R
Sampling rate : 48.0 kHz
Frame rate : 11.719 FPS (4096 SPF)
Bit depth : 24 bits
Compression mode : Lossless
Delay relative to video : 44 ms
Stream size : 216 MiB (17%)
Title : 2.0 FLAC
Writing library : libFLAC 1.3.0 (UTC 2013-05-26)
Language : Japanese
Default : No
Forced : No
Text
ID : 4
Format : ASS
Codec ID : S_TEXT/ASS
Codec ID/Info : Advanced Sub Station Alpha
Duration : 27 min 37 s
Bit rate : 625 b/s
Count of elements : 1217
Compression mode : Lossless
Stream size : 127 KiB (0%)
Title : GMC
Language : Russian
Default : No
Forced : No
Релиз от: Fartuna.TV
[korsars.info].t28862.torrent 
Торрент: Зарегистрирован [ 2020-05-20 00:59 ] · 3F85F5E9FBE8DF5C027B34B8EB454E85A3976725

Скачать .torrent

Скачать .torrent

35 KB

Статус: проверено
.torrent скачан: 7 раз
Размер: 13,24 GB
Правила
Похожие темы

[Профиль] [ЛС]

deadmauvlad

Оффлайн

Медали


Пол: Мужской

Стаж: 1 месяц 29 дней

Наличие запрета:

Сообщений: 26

Откуда: Siberian Republic

Отдача: не определено

Загрузка: не определено

Нажми

Создавать темы 20-Май-2020 18:35 (спустя 17 часов)

[Цитировать]

35651Format settings : CABAC / 16 Ref Frames
жесть al shok 4 Ref надо было ставить av au
[Профиль] [ЛС]

loe3df ®

Онлайн

Медали


Пол: Не указан

Стаж: 4 месяца 11 дней

Наличие запрета:

Сообщений: 45

Отдача: не определено

Загрузка: не определено

Нажми

Создавать темы 20-Май-2020 18:53 (спустя 17 минут)

[Цитировать]

35674
35651Format settings : CABAC / 16 Ref Frames
жесть al shok 4 Ref надо было ставить av au
Только такую равку нашел.
[Профиль] [ЛС]

deadmauvlad

Оффлайн

Медали


Пол: Мужской

Стаж: 1 месяц 29 дней

Наличие запрета:

Сообщений: 26

Откуда: Siberian Republic

Отдача: не определено

Загрузка: не определено

Нажми

Создавать темы 20-Май-2020 19:00 (спустя 6 минут)

[Цитировать]

Только такую равку нашел.
Я буду риповать 3 сезона. А вообще норм рипы
[Beatrice-Raws] Date A Live II [BDRip 1920x1080 x264 FLAC] Encoder: Vladdrako топовый кодер у биатрисов ay DJATOM av ao
[Moozzi2] Date A Live S2 (BD 1920x1080 x.264 Flac) - TV + OAD на крайняк у мухича лучше в плане насыщенности картинки + фильтры
слил 2 сезона http://korsars.info/viewtopic.php?t=28885
[Профиль] [ЛС]

loe3df ®

Онлайн

Медали


Пол: Не указан

Стаж: 4 месяца 11 дней

Наличие запрета:

Сообщений: 45

Отдача: не определено

Загрузка: не определено

Нажми

Создавать темы 20-Май-2020 19:04 (спустя 4 минуты)

[Цитировать]

[Beatrice-Raws] Date A Live II [BDRip 1920x1080 x264 FLAC] Encoder: Vladdrako топовый кодер у биатрисов ay DJATOM av ao
[Moozzi2] Date A Live S2 (BD 1920x1080 x.264 Flac) - TV + OAD на крайняк у мухича лучше в плане насыщенности картинки + фильтры
У них на раздаче никто не сидит.


Последний раз редактировалось: loe3df (2020-05-20 19:10), всего редактировалось 1 раз
[Профиль] [ЛС]

loe3df ®

Онлайн

Медали


Пол: Не указан

Стаж: 4 месяца 11 дней

Наличие запрета:

Сообщений: 45

Отдача: не определено

Загрузка: не определено

Нажми

Создавать темы 20-Май-2020 19:06 (спустя 2 минуты)

[Цитировать]

deadmauvlad, кстати, тебе нужна озвучка к "Gegege no Kitarou" ?
[Профиль] [ЛС]

deadmauvlad

Оффлайн

Медали


Пол: Мужской

Стаж: 1 месяц 29 дней

Наличие запрета:

Сообщений: 26

Откуда: Siberian Republic

Отдача: не определено

Загрузка: не определено

Нажми

Создавать темы 20-Май-2020 19:16 (спустя 9 минут)

[Цитировать]

loe3df, го в ЛС ap
[Профиль] [ЛС]
Показать сообщения:    
Ответить на тему

Текущее время: 25-Май 21:59

Часовой пояс: UTC + 4



Вы не можете начинать темы
Вы не можете отвечать на сообщения
Вы не можете редактировать свои сообщения
Вы не можете удалять свои сообщения
Вы не можете голосовать в опросах
Вы не можете прикреплять файлы к сообщениям
Вы можете скачивать файлы
Анализ сайта korsars.info Яндекс.Метрика