Коко-ди Коко-да / Koko-di Koko-da (2019) WEB-DL 1080p | iTunes

Ответить на тему
Статистика раздачи [Обновить пиров]
Размер:  3,39 GB   |    Зарегистрирован:  4 месяца 4 дня   |    .torrent скачан:  2 раза
Раздают:  30  [  0 KB/s  ]   Качают:  4  [  0 KB/s  ]   Подробная статистика пиров
 
   
 
 
Автор Сообщение

4udaki ®

Оффлайн

Медали


Пол: Мужской

Стаж: 5 лет 10 месяцев

Наличие запрета:

Сообщений: 7992

Откуда: korsars.info

Отдача: 2 Mb/s

Загрузка: 20 Mb/s

Нажми


Скачать Adguard бесплатно

Создавать темы 21-Май-2020 13:00

[Цитировать]

Информация о фильме
Название: Коко-ди Коко-да
Оригинальное название: Koko-di Koko-da
Год выхода: 2019
Жанр: Ужасы
Режиссер: Йоханнес Нюхольм
В ролях: Ильва Галлон, Лейф Эдлунд Йоханссон, Петер Белли, Катарина Якобсон, Морад Балу Хачадорян, Брэнди Литманен
О фильме: Несколько лет назад у молодой пары при трагических обстоятельствах погибла маленькая дочь. Все эти годы они пытались смириться с тяжёлой утратой, каждый переживая потерю в самом себе. По совету психолога пара решает отправиться в небольшое путешествие, чтобы попытаться наладить семейную жизнь. Однако в ходе путешествия они сталкиваются с неизвестными людьми, которые оказываются настоящими безумцами. Эти странноватые персонажи, начинают преследовать компанию молодых людей... И снова семейство погружается в пучину ужаса и издевательств.

Страна: Швеция, Дания
Студия: Beofilm, Film i Väst
Продолжительность: 01:29:29
Перевод: Дублированный | iTunes
Файл
Качество: WEB-DL 1080p
Контейнер: MKV
Видео: MPEG-4 AVC, 1920x1080, 4931 Kbps, 24.000 fps
Аудио: Russian: AC3, 6 ch, 48 kHz, 384 kbps - DUB, iTunes
Субтитры: Нет
Релиз от:

Скриншоты

MediaInfo

General
Unique ID : 207139782411481693869891228340479687649 (0x9BD5ABC42A9E4BAC9ABB9A207EA17BE1)
Complete name : COCO_DI_COCO_DA_2019_WEB-DL_1080p-BLUEBIRD.mkv
Format : Matroska
Format version : Version 4 / Version 2
File size : 3.39 GiB
Duration : 1 h 29 min
Overall bit rate : 5 423 kb/s
Encoded date : UTC 2019-12-21 19:32:22
Writing application : mkvmerge v6.9.1 ('Blue Panther') 32bit built on Apr 18 2014 18:15:44
Writing library : libebml v1.3.0 + libmatroska v1.4.1
Cover : Yes
Attachments : cover.png
Video
ID : 1
Format : AVC
Format/Info : Advanced Video Codec
Format profile : [email protected]
Format settings, CABAC : Yes
Format settings, RefFrames : 4 frames
Codec ID : V_MPEG4/ISO/AVC
Duration : 1 h 29 min
Bit rate : 4 931 kb/s
Width : 1 920 pixels
Height : 1 080 pixels
Display aspect ratio : 16:9
Frame rate mode : Constant
Frame rate : 24.000 FPS
Color space : YUV
Chroma subsampling : 4:2:0
Bit depth : 8 bits
Scan type : Progressive
Bits/(Pixel*Frame) : 0.099
Stream size : 3.08 GiB (91%)
Language : English
Default : Yes
Forced : No
Color range : Limited
Color primaries : BT.709
Transfer characteristics : BT.709
Matrix coefficients : BT.709
Audio
ID : 2
Format : AC-3
Format/Info : Audio Coding 3
Format settings, Endianness : Big
Codec ID : A_AC3
Duration : 1 h 29 min
Bit rate mode : Constant
Bit rate : 384 kb/s
Channel(s) : 6 channels
Channel positions : Front: L C R, Side: L R, LFE
Sampling rate : 48.0 kHz
Frame rate : 31.250 FPS (1536 SPF)
Bit depth : 16 bits
Compression mode : Lossy
Stream size : 246 MiB (7%)
Title : [DUB] DD 5.1 @ 384 kbps (iTunes)
Language : Russian
Service kind : Complete Main
Default : Yes
Forced : No
Menu
00:00:00.000 : en:Глава 1
00:08:38.583 : en:Глава 2
00:16:45.999 : en:Глава 3
00:25:04.374 : en:Глава 4
00:32:03.249 : en:Глава 5
00:39:48.957 : en:Глава 6
00:48:35.040 : en:Глава 7
00:57:39.956 : en:Глава 8
01:04:51.997 : en:Глава 9
01:12:40.538 : en:Глава 10
01:20:41.663 : en:Глава 11
[korsars.info].t28908.torrent 
Торрент: Зарегистрирован [ 2020-05-21 13:00 ] · 37CD1D0C82B971F6DD7BF577CF384E71243BBBD6

Скачать .torrent

Размер .torrent файла 18 KB

Статус: проверено
.torrent скачан: 2 раз
Размер: 3,39 GB
Правила
shura(21-Май-20)
Похожие темы

[Профиль] [ЛС]
Показать сообщения:    
Ответить на тему

Текущее время: 26-Сен 06:42

Часовой пояс: UTC + 4



Вы не можете начинать темы
Вы не можете отвечать на сообщения
Вы не можете редактировать свои сообщения
Вы не можете удалять свои сообщения
Вы не можете голосовать в опросах
Вы не можете прикреплять файлы к сообщениям
Вы можете скачивать файлы
Анализ сайта korsars.info Яндекс.Метрика